&title=卑弥呼
&artist=~ 朱雀 Vs 玄武 ~
&first=0
&des=EdMN Vs KuSA
&lv_5=14
&inote_5=(185){1},
{4}4h[16:5]/5h[16:5],{32},,,,
,18,27,36,{4}4>4[1:4]/5,,{32}8,,,,6,,,7,,,6,,5,,4,,3,,4,,,,,,{4},
{4}5,,3,,1,{16},,2,,,,,,3,,,,,7,,,,,6h[16:11],,{4},,{24},,1,2,3,4,5,6,7,8,1,2,{16}3,5,2,7,4,5,3,6,
{16}4b,,6,5,7,,2<5[4:1],4,3,,,,4,,3,,
{16}5,,3,4,2,,7>4[4:1],5,6,,,,5,,6,,
{16}4,,6,5,7,,2<5[4:1],4,3,,,,4,,3,,
{16}5,,74,,18,,1^4[8:1],4,2,6,,,8,,8,,
{16}8,,6,5,8,,2<5[4:1],4,3,,,,4,,3,,
{16}1,,3,4,1,,7>4[4:1],5,6,,,,5,,6,,
{16}8,,6,5,8,,2<5[4:1],4,3,,,,4,,3,,
{16}15,,73,,{24}5,4,6,{16}5h[8:1],,{24}6,5,4,3,,,{16}45,,18,,
{8}7^4[16:3]/2,7,{16}4,3,2,1,3,2,1,8,4,6,4,6,
{8}3^8[16:3],3,{16}8,7,6,5,7,6,5,4,8,2,8,2,
{8}6^1[16:3],6,{16}1,2,3,4,2,3,4,5,3,4,3,4,
{8}2^5[16:3],2,{16}5,6,7,8,{24}6,7,8,1,2,3,{16}54,,71,,
{8}7<3[16:3],7,{16}3,2,1,8,2,1,8,7,3,5,2,6,
{8}1>5[16:3],1,{16}7,8,1,2,6,7,8,1,4,2,5,3,
{8}6<2[16:3],6,{16}2,3,4,5,3,4,5,6,1,8,2,7,
{8}36,36,{24}45,36,27,{16}18,,38,,{24}7,6,5,{32}2,,,,8,7,6,5,
{16}3,3,4,,3,,4,3,,4,3,,3,4,3,,5,,4,3,,4,3,,3,4,3,,3,,4,3,5,3,4,,3,4,3,,3,,4,3,,4,3,,5,4,3,,3,,4,3,
{8}3h[8:1],,{32}1,2,3,4,5,6,7,8,
{16}2,1,2,,38,,2,24,,5,35,,7,8,7,,
16,,2,12,,8,83,,6,6,5,,84,,26,26,
,37,37,,4,4,5,,45,,17,17,,53,53,,
{32}8,1/7,2/6,3/5,
{16}4-8[2:1],,,,6,,6,,6,,6,,6,5,4,3,2,1,
{32}28,37,46,5,
,,,,
{16}7b,1,5,,46,,2,2,1,1,3,,6,5,74,,4,,
8,8,6,6,7,,2,1,83,,3,,6,6,5,5,64,,
18,27,36,,6,,3,3,4,4,5/3,,
{32}1,28,37,46,{16}5-1[2:1],,,,3,,
3,,3,,3,,2,2,2,,68,68,,13,13,,
{32}18,27,36,45,,,,,
{2}7bp5[1:2]/1bq3[1:2],,,,{4},,2,3,4h[2:1],,3,,4h[2:1],,5,,5h[2:1],,6,4,3h[2:1],,2,4,5,7,6,45,
{8}
3/7b,4,5,6,38,4,5,6,31,4,5,6,38,4,5,6,36,4,5,6,34,4,56,6,37,4,5,6,35,4,5,6,26,3,4,5,17,2,3,4,85,1,2,3,74,8,13,2,
{4}1-6[2:1]/8-3[1:1],,,,,,{8}45,45,3^8[64:4]/6,,
{64}7b,6b,5b,4b,
,,,,
{8},4,4,
{16}2,4,2,4,3,5,3,5,3,4,2,5,3,4,2,5,2,1,3,8,4,7,5,6,
{16}1,2,3,4,2,3,4,5,4,3,2,1,6,7,8,1,
{16}3,5,3,5,2,6,2,6,3,4,6,5,2,3,7,6,
{8}51,83,62,74,
25,37,16,47,
63,82,54,71,
36,28,57,12,
{8}35,64,25,74,16,83,17,28,
{8}24,78,75,24,18,86,13,56,
{16}46,3,26,1,86,1,26,3,46,3,26,1,86,1,26,3,
{16}64,7,84,1,24,1,84,7,64,7,84,1,24,1,84,7,
{16}64,3,25,6,73,2,16,7,83,2,15,6,
{32}74,3,2,1,8,7,6,5,
{8}1b,
{16}7,5,8,,3,4,1,,6,5,7,,3,4,{24}2,1,2,1,2,1,{16}3,8,2,1,
{16}2,3,4,5,3,4,5,6,37,,2,4,3,,8,5,6,,1,4,2,,7,5,{24}8,1,8,1,8,1,{16}8,2,7,3,6,4,5,1,{24}7,8,7,8,7,8,
{8}6-2[8:1],6,6/5-1[8:1],5,5/7-4[8:1],7,7/2-6[8:1],2,2/4-8[8:1],4,4/5-1[8:1],5,5/3-7[8:1],3,31,1,
{16}1,8,1,8,{24}1,8,1,8,1,8,{16}2,7,2,7,{24}2,7,2,7,2,7,{16}1,1,7,2,8,8,2,7,1w5[3:1],8,{32}1,8,1,8,{4}1b,{32},,,,
,,,,
1,2,3,4,
5,,,,
{8}7V53[8:1],7,8-3[8:1],8,6-1[8:1],6,5^2[8:1],5,
{16}7,6,5,4,1,8,7,6,{24}8,7,6,2,3,4,{8}65,73,
{8}2V46[8:1],2,1-6[8:1],1,8-3[8:1],8,7^2[8:1],7,
{16}3,4,5,6,3,4,5,6,{24}8-4[8:1],1,2,3-8[8:1],4,5,{8}8,3,
{8}6V82[8:1],6,5-2[8:1],5,7-4[8:1],7,8^3[8:1],8,
{16}6,7,8,1,4,5,6,7,{24}8,1,8,1,2,3,4,1,8,7,6,5,{16}3,4,3,4,2,8,2,8,5,7,5,7,1,5,1,5,
{32}1b,8,7h[32:14],,5b,4,3h[32:10],,
{8},,{24},84,15,26,37,48,{32}5,6,7,8,1,2,3,4,
{8}5/8-4[8:1],8,1-6[8:1]/8,1,5-1[8:1]/1,5,3-7[8:1]/5,3,
{16}63,5,4,3,7,6,5,4,{24}8,7,6,2,3,4,1,8,7,5,4,3,
{8}7/2-6[8:1],2,8-3[8:1]/2,8,5-1[8:1]/8,5,7v2[8:1]/5,7,
{16}37,4,5,6,2,3,4,5,{24}2,3,4,8,7,6,1,2,3,7,6,5,
{8}3/4-8[8:1],34,,,
{32}35,,,,8,71,62,53,4,,,,1,28,37,46,
{8}5w1[8:1],45,,,
{32}46,,,,37,26,15,48,37,,,,15,26,37,48,
{8}1qq7[8:1]/5qq3[8:1],,,,3qq2[8:1]/7qq6[8:1],,,,
{16}2,4,3,5,4,6,5,7,{24}1,8,1,8,1,8,2,7,3,6,4,5,
(175)
{16}4,3,2,1,8h[8:1]/6,,5,4,3,2,14,,2,8,3,5,
{16}4,5,6,7,8h[8:1]/5,,5,6,7,8,14,,6,5,8,2,
{16}7,6,5,4,3h[8:1]/1,,8,7,6,5,46,,2,8,4,5,
{16}3,2,1,8,7h[8:1]/4,,4,3,2,1,84,,7,3,5,2,
(170)
{16}6,5,4,3,
25,14,83,72,
61,,,,
1,7,2,6,
{16}1,8,7,6,
58,47,36,25,
14,,,,
3,4,1,5,
{16}25,36,47,58,
1,,83,72,
61,58,4,,
3,4,2,6,
(165)
{16}8,,,,,7,8,7,16,,3,,5,,45,,38,,,,,,,,1,3,4,6,2,5,6,8,1,3,4,6,2,4,5,7,1,2,4,6,7b-3[1:1],
