&title=Vindication
&artist=Laur
&first=0
&des=かぜきよ
&des_5=かぜきよ
&lv_5=14
&inote_5=(174){4},,,,{32}7x,
6x,{16}5xh[16:15],,,,,,,,,,,,,,,{1}3h[1:1],
{32}8x,7x,{16}6xh[16:15],,,,,{8}E1,,,{4}C,
{2}2h[1:1],{4}C,E5,
{32}7x,6x,{16}5xh[16:15],,,,,,,{2}E3,
{4}2h[1:1],E4,E5,E6,
{8}6h[1:1],,,E5,,5,4,3,
{2}C,{8}E7,C,{4}E3,
{32}7xqq5[4:3],6x,{16}5x,,,,,,,,,,,,,,,{1}2<4[4:3],
8qq4[4:3],
3p5[4:3],
{32}8xpp4[4:3],7x,{16}6x,,,,,,,,,,,,,,,{4}7<4[4:1],
4>1[4:1],1<6[4:1],6>2[4:1],
{1}2<6-4-8-2[8:7],
Cfh[1:1],
{4}8b,{8}6,7/4h[4:1],,5,{4}6/3h[4:1],
{8}4,5/2h[4:1],,3,{4}4-7[8:1]/1-4[8:1],1/4,
2/6,{8}3,2/5h[4:1],,4,{4}3/6h[4:1],
{8}5,4/7h[4:1],,6,{4}5-2[8:1]/8-5[8:1],8/5,
{8}4b/3h[4:1],5,6,8/7h[4:1],1,2,5/3h[4:1],6,
7,2/8h[4:1],3,4,{4}5-2[8:1]*-1[8:1],5,
{8}8/7h[4:1],1,2,4/3h[4:1],5,6,1/7h[4:1],2,
3,6/4h[4:1],7,8,{4}1-6[8:1]*-5[8:1],1,
{8}2b>5[8:1],1,2,7-3[8:1],8,7,4-8[8:1],5,
4,6<1[8:1],5,6,{4}4w8[8:1],4,
{8}3<6[8:1],2,1,8>3[8:1],7,6,5<8[8:1],4,
3,2>5[8:1],1,8,{4}7-4[8:1]*-3[8:1],7,
{8}1b-5[8:1],5,1,4<7[8:1],3,4,2q6[8:1],8,
2,1-5[8:1],3,1,{4}4w8[8:1],4,
{8}6>3[8:1],7,8,1<6[8:1],2,3,4>1[8:1],5,
6,7h[4:1],8,1,{4}2-5[8:1]/6-1[8:1],2/6>6p6b[2:7],
{32}2x<2p2[4:13],B2,Cf,B6,{1},,,{4},,,{16},,{4}3/5h[4:3],
3,3,3,
6/4h[4:3],6,6,6,
{8}3/7,3/7,2/6,2/6,{16}1,5,1,5,{32}D1,D8,D7,D6,D5,D4,D3,D2,
{1}Cfh[1:1],
{2}2bV46V82[2:1],2x<2[2:1]*-6[8:1],
2x<4[8:3],Cfh[4:3],
7-3[16:1],{16}E2,B1,B8,E8,,,{8}6,
5,4,3p6q3[2:1],4,,5,{4}5,
{2}6x<6[2:1],6<6[2:1]*-2[8:1],
6xV42V86[2:1],6xz2[4:1],
{4}4b-1[8:1]*-7[8:1],4,{8}8,1>3[8:1]/7<5[8:1],,1/7,
,2x-5[8:1]/6x-2[8:1],6x/2xV86-4[8:3],2x/6x-8-4-2b[8:3],,,,,{2}Cf,
{8}4h[4:1]/5>2[8:1],2<7[8:1],{4}5,
5xv4[8:1],{8}5/6,6,{2}5xv6s2[2:1]/2xv1s5[2:1],
{8},,,,4x-1[8:1]/5x-8[8:1],4x/5x,{4}4x/5x,
{8}2x/6x,2v5>1[8:3]/6v1<5[8:3],,2x/6x,{16},,,,,,,,3x,
6x,2x,5x,1x,4x,{8}8x,4x-7[8:1]/8x-3[8:1],4x/8x,{4}4V28[8:3]/8V64[8:3],
,,{2}Ch[2:1],
{4}8b-5[8:1]*-3[8:1],8,{8}4,5<7[8:1]/3>1[8:1],,5/3,
,7x-4[8:1]/3x-7[8:1],3x/7xV13-5[8:3],7x/3x-1-5-7b[8:3],,,,,{1}Cf,
{8},C,{4},,,{32}4xh[1:4],
,,,,,,,,,,,,,,B6,B5,B4,{4},,{16},,{32},B4,
{4}E4,{32},,,,,,,,,,,,,,,,B1,
B2,{16}E3,{4},,,{16},{32},B8,
B7,E7,{4},,,{16},,{32}7x,6x,
5xh[1:2],{4},,,{16},,,{32}B3,
B4,B5,,,,,,,,,,,,,,B6,B5,B4,,,,,,,,,,,,,,3x,
{1}4xh[1:1],
{2}C,{8}E6,E5,{4}E4,
{2}4xh[4:1]/3xh[1:1],5h[4:1],
6h[4:3],{8}B6,B5,B4,B3,
{2}8h[4:1]/2h[1:1],1h[4:1],
{4}6h[4:1],5h[4:1],4h[4:1],{32}3h[4:1],,,,,,,6x,
{8}5xh[8:7],,,,,E6,E5,E4,
{2}2xh[1:1]/8h[4:1],{32}1h[4:1],,,,,,,,,,,,,,,6x,
5x<5b[4:3]*>5b[4:3],4x,{1},{4},{16},,,4,
8,5,1,2x/6x,1x/5x,4x/8x,7x/3x,
{4}2x/6xV42[4:1],2>5-7[4:1],{8}1-5[8:1],8x,{4}1,
3x-8[8:1]/1x-5[8:1],1/3,6x-1[8:1]/1x-4[8:1],6/1,
2>7[4:1],{8}7<2[4:1],7,,8x-4[8:1],8,1,
{4}1-7[8:1]*-5[8:1],1,1w5[8:1],1,
2-4<7[4:1],7V53[4:1],{8}1-5[8:1],8x,{4}1,
6x-1[8:1]/8x-4[8:1],8/6,3x-8[8:1]/8x-5[8:1],3/8,
7<4[8:1],{8}7/8,1V35v2[8:3],,5/1,6,7,
{2}8h[4:1],{8}7/3,{16}1,1,{4}2x>8[8:3]/8x<2[8:3],
{8}2x/8x,,,,,1,8/2,3/7,
{4}6>3[8:1],{8}6/2,1V35[16:3],,1/5,{4}6V42[4:1],
2-5<7[4:1],{8}1,1-5[8:1],,8,{4}8-4[8:1],
4<7[8:1]/8>3[8:1],8-4[8:1],4<7[8:1]/8>3[8:1],8xqq5[2:1]/4xqq1[2:1],
{8}4b/8b,,,,,2x/6x,7x/3x,4x/8x,
{4}3V57[4:1],7-4>2[4:1],{8}8-4[8:1],1x,{4}8<1[8:3],
{8}8b,,,,,2/6,7/3,8/4,
1h[4:1]/5h[4:1],{16},,,,4x/8x,3x/7x,{2}2xV46[8:1]/6xV82[8:1],
C,{8}E3,{32}8x-4[8:1],E8,{16}E7,{32}2x,E3,{16}E4,{32}B8,C,{16}B4,
{8}D2/A1/E2/A2,{32}7x-3[8:1],E7,{16}E6,{32}1x,E2,{16}E3,{32}B7,C,{16}B3,{8}A1/D2/E2/A2,{32}8x-4[8:1],E8,{16}E7,{32}2x,E3,{16}E4,{32}B8,C,{16}B4,
{4}A1/D2/E2/A2,Ch[2:1]/6xV42>7[2:1],,,1-4-6[4:1],
6>1[4:1],{2}Ch[2:1],
{8},,,,E7,{32}1x-5[8:1],E2,{16}E3,{32}7x,E7,{16}E6,{32}B1,C,{16}B5,
{8}D8/A8/E8/A7,{32}2x-6[8:1],E3,{16}E4,{32}8x,E8,{16}E7,{32}B2,C,{16}B6,{8}A8/D8/E8/A7,{32}1x-5[8:1],E2,{16}E3,{32}7x,E7,{16}E6,{32}B1,C,{16}B5,
{4}A8/D8/E8/A7,Ch[2:1]/3xV57<2[2:1],,,8xz4[4:1],
3x<8[4:1],{2}Ch[2:1]/Ch[2:1],
{8},,,,B3/E4/B4,{32}8x,E8,{16}E7,{32}2x,E3,{16}E4,{32}1x,B1,{16}C,
{8}A3/D4/E4/A4,{32}7x,E7,{16}E6,{32}1x,E2,{16}E3,{32}8x,B8,{16}C,{8}A2/D3/E3/A3,{32}8x,E8,{16}E7,{32}1x,B1,{16}C,{32}2x,E3,{16}E4,
{4}Ch[4:3],7x-4V68-5[2:1],,,2>7[4:1],
7<2[4:1],{2}Ch[2:1],
{8},,,,B6/E6/B5,{32}1x,E2,{16}E3,{32}7x,E7,{16}E6,{32}8x,B8,{16}C,
{8}A6/D6/E6/A5,{32}2x,E3,{16}E4,{32}8x,E8,{16}E7,{32}1x,B1,{16}C,{8}A7/D7/E7/A6,{32}1x,E2,{16}E3,{32}8x,B8,{16}C,{32}7x,E7,{16}E6,
{1}A4f/8bx<8[4:9],
E
