&title=【张顺飞】顺顺舞曲
&artist=加勒比海龟_
&first=0.04
&des=心白-HW
&des_5=心白-HW
&lv_5=14
&inote_5=(195){4}5,,{2}1h[8:1],
5,1h[8:1],
{4}5,5,4,4,
{8}1h[8:1],3,1h[8:1],3,1h[8:1],5,1h[8:1],5,
1>4[8:1],6,7,8,1<6[8:1],4,3,2,
1-5[8:1],6,7,8,1w5[8:1],1,{4}1,
{8}7-4[8:1],1,7,2,3-8[8:1],5,3,6,
7-5[8:1],1,7-3[8:1],1,7-5[8:1],1,7,1,
8>3[8:1],5,6,7,8<5[8:1],3,2,1,
8-4[8:1],5,6,7,8w4[8:1],8,{4}8,
{8}2-5[8:1],8,2,7,6-1[8:1],4,6,3,
2-4[8:1],2,8-6[8:1],8,5w1[8:1],5,{4}5,
7-1[4:1],1pp3[4:1],3v2[16:3],2,
{1}1<8s4<5z1[8:5],
{4}7-1[4:1],1pp3[4:1],3v2[16:3],2,
{1}8-5qq5[8:5],
{4}7-1[4:1],1pp3[4:1],3v2[16:3],2,
{1}1p5p1[2:1],
{4}7-1[4:1],1pp3[4:1],3v2[16:3],2,
{2}1s5-1[16:3],8x<7v5<6-8[16:3],
1x>2v5>4-1[16:3],8xz4s8[16:3],
1x<8-4<5-1[16:3],{4}8<6[8:1],1/8-5[8:1],
1/8-4[8:1],1/8>2[8:1],7/8-3[8:1],7/8-4[8:1],
7/8,5w1[8:1],{128},Cf,{16},,,{64},,,{4}3h[4:1],
{8}7,2,8,1,{24}2x/7x,3x/6x,,,,,2x/7x,6x/3x,,,,,{8}4/5,
4/5,4-8[8:1]/5-7[8:1],5/4,{4}5-1[8:1]/4-2[8:1],5/4,
{8}8-5[8:1],4v1[8:1],8,4,{32},,,,1bx,2x,3x,4x,5bx,6x,7x,8x,1bx,2x,3x,4x,
5bx,6x,7x,8x,1bx,2x,3x,4x,5bx,6x,7x,8x,1bx,2x,3x,4x,{4}Cf,2v4[16:3]*<7[16:3],
{12},,,,,,4/5h[12:1],3,,4/5h[12:1],3,{24},,{8}6,
5,3,4,{12}6/5h[12:1],7,,6/5h[12:1],7,{24},,{8}8,
8,8,8,D1,D8,A8,A7,
{4}B8/E8,6bh[2:1],{24}7bx,8x,1x,2x,3x,4x,{4}5x,
{8}5/6,7,4/5-7[8:1],3,{4}5-3[8:1],5,
{8}5/2,3/7,8-6[8:1]/1-6[8:1],2,{4}8-4[8:1]/1-4[8:1],8/1,
{8}5,3/6,7,5/8,7,8x,8x-6[16:1],8x-2[16:1],
8x-5[16:1],8x-3[16:1],8x-4b[8:3],8x,,,,,6/2h[8:3],
6,6,6,{32}2bx/6bx,3x/7x,{16}4x/8x,{32},,,,2bx/6bx,3x/7x,{16}4x/8x,,,{8}4,
6,3,5,{32}3bx/6bx,2x/7x,{16}1x/8x,{32},,,,3bx/6bx,2x/7x,{16}1x/8x,,,{8}1,
1,8,8,8,7,7,6/5,
{2}6-1[12:1]/5-2[12:1],{8}8x<5[8:1]*<5[8:1],3,2,1,
8>3[8:1]*>3[8:1],5,6,7,8-4[8:1]*-4[8:1],3,2,1,
8w4[8:1]*w4[8:1],8,{4}8,{8}2-5[8:1]*-5[8:1],8,2,7,
6-1[8:1]*-1[8:1],4,6,3,2-4[8:1]*-4[8:1],8,2-6[8:1]*-6[8:1],8,
2-4[8:1]*-4[8:1],8,2,8,1<6[8:1]*<6[8:1],4,3,2,
1>4[8:1]*>4[8:1],6,7,8,1-5[8:1]*-5[8:1],4,3,2,
1w5[8:1]*w5[8:1],1,{4}1,{8}8w4[8:1]*w4[8:1],8,{4}8,
{8}1V35[8:1]*q5[8:1],1,{4}1,{8}8V64[8:1]*p4[8:1],8,{4}8,
{8}2>5[8:1]*-4[8:1],2,{4}2,{8}7<4[8:1]*-5[8:1],7,{4}7,
{8}2-4<5[8:1]*-5[8:1],2,{4}2,{8}7-5>4[8:1]*-4[8:1],7,{4}7,
{8}2x-6[8:1]*-6[8:1],2,1x-5[8:1]*-5[8:1],1,8x-4[8:1]*-4[8:1],8,7x-3[8:1]*-3[8:1],7,
8x-4[8:1]*-4[8:1],8,1x-5[8:1]*-5[8:1],1,{2}2bz6b[8:1],
{8}1/7,6/4,8/2,3/5,{32}7/8h[16:1],6,{16}5,{32},,,,1/8h[16:1],2,{16}3,,,{8}8/2,
3/5,1/7,6/4,{32}2/1h[16:1],3,{16}4,{32},,,,8/1h[16:1],7,{16}6,,,{8}1/7,
6/4,8/2,3/5,1-3[8:1],8-6[8:1],1-5[8:1],8-4[8:1],
1>4[8:1],8<5[8:1],1w5b[8:3],8,,,,,7/3,
5/1,4/8,6/2,{32}7/8h[16:1],6,{16}5,{32},,,,1/8h[16:1],2,{16}3,,,{8}2/6,
4/8,5/1,3/7,{32}2/1h[16:1],3,{16}4,{32},,,,8/1h[16:1],7,{16}6,,,{8}7/3,
5/1,4/8,6/2,7>1[8:1],3<5[8:1],{4}7-3b[8:1],
{12},,,E4,{96}E3,,,,,,,E2,,,,,,,,,{12}E6,{96}E7,,,,,,,E8,{4},{16},{64},{192},{8}2>5[8:1],
2,{4}2,{32}4bx/6h[8:1],3x,2x,1x,,,,,2bx/7h[8:1],3x,4x,5x,,,,,{8}7<4[8:1],
7,{4}7,{32}5bx/3h[8:1],6x,7x,8x,,,,,7bx/2h[8:1],6x,5x,4x,,,,,{8}1>3[8:1],
8<6[8:1],1,8,{32}2bx,3x,{16}4x,{32}7bx,6x,{16}5x,{32}1bx,2x,{16}3x,{32}8bx,7x,{16}6x,
{32}2bx,3x,4x,5x,8bx,7x,6x,5x,1bx,2x,3x,4,7bx,6x,5x,4x,{2}Ch[4:1],
{8}7<4[8:1],7,{4}7,{32}5bx/3h[8:1],6x,7x,8x,,,,,7bx/2h[8:1],6x,5x,4x,,,,,{8}2>5[8:1],
2,{4}2,{32}4bx/6h[8:1],3x,2x,1x,,,,,2bx/7h[8:1],3x,4x,5x,,,,,{8}8-4-8[4:1],
8,1-5[8:1],1,,,{4}4x-8b[4:1]/7xp1b[4:1],
{8},,,,1h[8:1],2h[8:1],3h[8:1],4h[8:1],
5h[8:1],6h[8:1],7h[8:1],8h[8:1],{4}1,8x-4b[4:1]/1xq7b[4:1],
{8},,,,5h[8:1],6h[8:1],7h[8:1],8h[8:1],
1h[8:1],2h[8:1],3h[8:1],4h[8:1],{16}7bx,4,5,4,8bx,5,6,5,
7bx,3,4,3,8bx,5,6,5,7bx,4,5,4,8bx,3,4,3,
1bx,5,6,5,8bx,4,5,4,{4}7bx,{16}2bx,5,4,5,
1bx,4,3,4,2bx,6,5,6,1bx,4,3,4,2bx,5,4,5,
1bx,6,5,6,8bx,4,3,4,{4}1>4[4:1],4<7[4:1],
7>2[4:1],2>5[4:1],5<8[4:1],8>3[4:1],
3<6[4:1],6,8<5[4:1],5>2[4:1],
2<7[4:1],7<4[4:1],4>1[4:1],1<6[4:1],
6>3[4:1],3,{16}1q5[12:1],,,1,7p3[12:1],,,7,
2q6[12:1],,,2,8p4[12:1],,,8,{2}1bh[4:1],
{32}1b/8b,7/2,3/6,4h[32:5]/5h[32:5],,,,,,,,,,,,,4,3,2,1h[32:13],,,,,,,,,,,,,5,
6,7,8h[32:13],{4},{16},,{24}1b,2,3,4,5,6,7,8,1,2,3,4,
5,6,7,8,1w5[0.4103##0.1538],2,3,4,5,6,7,8,{2}1b,
E
