&title=残機
&artist=ずっと真夜中でいいのに。
&first=0.31
&des=——
&lv_5=13+
&inote_5=(141)
{4},
{16}6h[8:1],,5,7,,4,6,,3h[8:1],,4,2,,5,3,,
5h[8:1],,4,6,,3,5,,4pp4[4:1],4,,,2,,,,
3h[8:1],,5,2,,6,4,,6h[8:1],,4,7,,3,5,,
4h[8:1],,5,2,,6,3pp1[8:3],,4,,,,,,,{96},,,,
{16}8h[8:1],,,,5,7,4,6,3xh,,,,4,2,5,3,6,,,,4,6,3,5,2xv5[6:1],2,,,4,,,,
8h[8:1],,,,5,7,4,6,3xh,,,,4,2,5,3,6,,,,4,6,3,5,2x-5[8:1],,6v1[8:1],,2,,6,,
3qq2[4:1],,,,4>6[4:1],,,,4x,,,,3,,5,4,6p1[6:1],,3,,4,,,,5x>2[6:1],,4,,8,,,,
6pp7[4:1],,,,5<3[4:1],,,,5x,,,,6,6,4,,2,2,1-5[8:1],,3,,1,,4xpp1[16:5],,6,,8,,,,
6pp6[4:1],,,,6<3[4:1],,,,3x,,,,4,,5,5,3-8[6:1],,6,,5,,,,4x<7[6:1],,5,,1,,,,
1-5[8:1],,,,1/7-3[8:1],,7,,2x>5[8:1],,,,2/1,,,,8h[4:1]/6xpp3[8:3],,,,,,,,E5,,,,,,,,
4>1[6:1],,,,4/7-4[8:1],,,,87,,,,3,3,4,4,2h[4:1],,4,,5h[8:1],,3,,4<7[8:1]/2h[4:1],,3,,4,,,,
5<8[6:1],,,,5/2-5[8:1],,,,12,,,,7,7,8,,6h[4:1],,4,,3h[8:1],,5,3,4-7[8:1],,2,,4,,3,,
2-6[8:1],,,,8<4[6:1]/2,,,,8,,,,2,2,1,1,3h[4:1],,5,,6h[8:1],,4,4,7-4[8:1],,2-5[8:1],,7,,2,,6h[8:1],,4,,3,5,3,5,2b-7[8:1],,,,6,,5xh[2:1],,,,4,,3,,2,,1-5[8:1]/6-8[8:1],,58,,1b>4[6:1],,,,5x-2[6:1],,5,,7<4[6:1],,,,3xV58[4:1],,3,,2x,,1x>4[8:1],,,,6p2[8:1],,8,,1q5[8:1],,7,,6,,1xw5[8:1],,,,1,,,,7,,3,,1-6[8:1],,5-2[8:1],,1x,,5x,,,,5,,,,1,,2v5[6:1]/8v5[6:1],,,,,,,,
6h[8:3],,,,Ch[8:1],,B5,,3h[8:3],,,,Ch[8:1],,B4,,7h[8:3],,,,Ch[8:1],,B5,,2>5[6:1],,,B4,,,6,,
7h[16:3],,,5,,,48,,3h[16:3],,,1,,,84,73,2xpp5[8:3]/6xpp1[8:3],,,,,,,,,,,,3b/7b,,,,
6,5,,4,,5,6,,3,4,,5,,4,3,,2b>4[8:1]/7b<5[8:1],,,1x/8x,,
,,,,,{32},6,5,4,3xb,,,,,,,,
1-5[8:1]/6,2x/7x,3x/8x,,,,3,,,,,,2,,,,1xq6[6:1]/6x,2x/7x,3x/8x,,,,4,,,,,,3,,,,7<4[8:1],,,,4-8[8:1],,,,7,,,,2,,,,1>5[8:1],,,,7,,,,1,,,,,,,,1<5[6:1],,,,,,4,,,,,,2,,,,8>4[6:1],,,,5,,,,6,,,,7,,,,6-8[8:1],,,,8pp5[3:1],,,,6x,,,,2x,,,,,,,,,,,,4,,,,3,,,,
8/3,7x/2x,6x/1x-5[8:1],,,,5,,,,,,7,,,,8x/4x,7x/3x,6x/2x-5[8:1],,,,6,,,,,,8,,,,7-4[6:1],,,,8,,,,2-5[6:1],,,,1,,,,5<2[4:1],,,,6,,,,7,,,,,,,,
{8}4-1[8:1],5,6x,,4-7[8:1],2,3x,,
{16}4,5,2,6,4,5,3,7,1,1,6,6,3,3,8,8,
1q7[4:1],,,,7p1[4:1],,,,1xq7[4:1],,,7x,,,8x<5[8:1],,,,3q7[8:1],,1,,8p4[8:1],,2,,3<8[4:1],,2b,,,,2q8[4:1],,,,8p2[4:1],,,,2xq8[4:1],,,8x,,,1x<6[8:1],,,,4q8[8:1],,2,,1p5[8:1],,3qq3[4:1],,2,,3b,,,,8<5[8:1],,2,,3V17[6:1],,,,8p2[6:1],,7,,6,,5-7[8:1],,,,8-4[8:1],,1,,5,,5pp4[4:1],,4,,3b,,,,1>4[8:1],,7,,6V82[6:1],,,,1q7[6:1],,2,,3,,4-2[8:1],,,,,,5,,6,,7,5,6,6,2,4,3,3,
5h[8:1],,2,4,1h[8:1],,6,8,5h[8:1],,2,4,1h[8:1],,6,8,
5h[8:1],,2,4,1h[8:1],,6,8,
{32}5h[16:1]/1h[16:1],,,6x/2x,7x/3x,8x/4x,,,2b/6b,
