&title=我想走到最后
&artist=Warak and NC.A
&first=0
&des=山の蓝莓
&lv_5=13.9
&inote_3=(160){16},,,,,,,,,,,,,,,
E4,,B4,,B5,,E6,,,,,,,,,,
E8,,B8,,B1,,E2,,,
{16},,,,,,,
4h[4:1]/7h[4:1],,,,,,
4h[4:1]/2h[4:1],,,,,,,,
5/B1,,,,3/E8,,6w2[6:1]/B2,,,,,,,,,,
1qq5[2:1],,,,3,,2-4[6:1],,,,B3,,B4,,,,
4qq1[2:1],,,,{8}5,6,,7,8V26[4:1],,3-6-2[4:1],,,,,
1/5,{16},,1/5,2/6,3/7,4/8,1/5,A2,A3,A4,A5,A6,
&inote_5=(160){16},,,,,,,,,,,,,,,
E4,,B4,,B5,,E6,,,,,,,,,,
E8,,B8,,B1,,E2,,,
{16},,,,,,,
4h[4:1]/7h[4:1],,,,,,
4h[4:1]/2h[4:1],,,,,,,,
5/B1,,,,3/E8,,6w2[6:1]/B2,,,,,,,,,,
1qq5[2:1],,,,3,,2-4[6:1],,,,B3,,B4,,,,
4qq1[2:1],,,,{8}5,6,,7,8V26[4:1],,3-6-2[4:1],,,,,
1/5,
{16},,1/5,2/6,3/7,4/8,1<6[4:1],
{16},2,,
{24}A8/3,D8,A7,D7/4,A6,E6,B5,B4,E4,B3,B2,E2,B1,B8,,,
1x/5,{240},,,,,,,,,,,,,,,,,,,,,,,,
{16},,,3x-5-1[4:1]/7-5-1[4:1],,,,,,
{16},,,,
2h[3:1]/8h[3:1],,,,,,,,
2-4[8:1]/8-6[8:1],,,,,,,,
5h[3:1],,,,,,,,,,
5-1[8:1],,,,,,,,,,,,
1w5[6:1],,,,,,
{8},,4,,,4/6,,,,4,4/5-8[4:1],4,,4,4,,,4/1,,
1,4h,8,4h,8,8,4h,,4h,8,8,4h,8,8,4,4/5x,,,
5,,,,5,5/2-4[4:1],5,,5,5,,5,5/4-2[6:1]b,,
5h,5h,5h,1,5h,5h,5h,,1,1,5h,1,1,5h,,,
{16}
3,,3,,3,4,3,,3,,3,,3,4,3,2,3,4,3,,3-6[8:1]b,,,,,,,,
6x,,6,,6,5,6,,6,,6,5,6,7,6,,6,5,6,,
6x,,6x,,6x-8-5[3:1]*qq5[3:1],,,,A7,,A8,,B6,,A5,,
3xqq8[2:1],,,,
{8},
4,5,6,7x-5-3[6:1],7x,7x/8x,,,
1/3,8/6,2/4,7/2,3/8,
2/5b-8[8:1],,1/5b,2b-5[8:1],,2b/8,1b-4[8:1]b/A5f,,,,,
5-2[8:1],5,5,5-8[8:1]b,5,5,,,
1x-4[8:1],1x,1x,1x-6[8:1]b,1x,
1xbv3[8:1],,1/7,6v4[8:1],,6/8,1,,
1h[4:1]/2h[4:1],,,7h[4:1]/8h[4:1],,,
1bx>1[100:160],2bx>1[100:148],3bx<1[100:134],4bx<1[100:123],5bx<1[100:110],,
Cf,,,,,,,,,,,,,
4/6,3/5h[1:1],,1,2,3q7[8:1],,3<6[8:1],,3-7[8:1],,3-1-5[4:1],,,,,
E7/B7/B6/B3/B2/E3,1/8,E7/B7/B6/B3/B2/E3,4/5,4/5,,,
B3/B2/E3,4x/5x,4x/5x,,E7/B7/B6,8x/1x,,,,
6,5,4,3h[1:1],,
6p2[8:1],,6>3[8:1],,6-2[8:1],,6-8-4[4:1],,,,,
E7/B7/B6/B3/B2/E3,4/5,,E7/B7/B6/B3/B2/E3,1/8,,,
B3/B2/E3,1x/8x,8x/1x,,E7/B7/B6,5x/4x,
{16}
3,,7,,1,,2,8,1,,3,1,2,,4,2,3,,5,3,4,,6,4,5,,6<2[8:1],,2>6[8:1]b,,,,,,,,
2,1x,2,,1,8,1,,8,7,8>4[8:1],7,8,,
{32}4,5,6,7,8,1,2,3,4,5x,6,7,8,1x-5[200:130],,,,
{8},1,1,1w5[8:1],1,1,,,
2/5,3,4/7,6,5-1[4:1],5-1[8:1]b,,,,
2,1,2,3/5,4b-1[8:1],,6/4b,7b-3[8:1],,7b/8,1b-4[8:1]b,,,,,
4,8-3[8:1],4,8-5[8:1],4,8w4[9:1],,,,
4x-1[8:1],8,4x-7[8:1],8,4bx,,
1pp5[3:1]/8qq4[3:1],2/7,,,,,
2-7[8:1],,2/6,5-8[8:1],,5/4,3,2>5[8:1],1,8,7>2[8:1],,,,,,
7h[4:1]/8h[4:1],,,1h[4:1]/2h[4:1],,,1/2,
{32}1h[8:1]/2b,3,4,5,6,,,,,7/8,,,,7b/8h[8:1],6,5,4,3,2,1,8,7bqq2[100:550]b/3bpp8[100:550],,,,,,,
{4},,,,,,,,,,,,,,,,,,,,,,
{8},,,,,
E2,B2,B3,E4,E8,B7,B6,E6,E1,,C,B5/B4/E5f/E6/E4/A5/A4/A3/A6,,
3h[4:1],4,6h[8:1],5v2[8:1],,,
5<8[4:1],,4,3,2,1<6[6:1],,2,
3>6[1:1],,4,4,4,5hb[8:1],,5,4,4,4,4,4b/5qq2[2:1],5/4,5hx[4:1],,,,,
1,2/8,3-7[8:1]/7-3[8:1],,,,,3/7,4/8,1-5[6:1]/5-1[6:1],2/6,,,,,,
5,5,4/6,4/6,3/7,3/7,2/8,2/8,
1,1,1,1,1b/4b,8b/5b,2b/6b,4b/7b,
5,6,5h[2:1],6,7,8,1h[2:1],5,6,7h[2:1],,1,2,3,2,1h[2:1],7,6,5h[2:1],
{16},,1x,8x,7x,6x,,6,7,,7,,8,,8,,1,,1,,1/3,,1/3,,1/5,,1/5,,1/4,,1/4,,
8hx[8:1]/6hx[8:1],,,,1/5,2/4,3,,
3hx[8:1]/1hx[8:1],,,,4/8,7/5,6,,
2hx[8:1]/8hx[8:1],,,,3/7,4/6,5,,
4/6,,4/6,,3/7,,3-1-5[100:130]/7qq5[100:130],,,,,,,,,,,,,,,,,,,,,,,,,,,,
1/5,,2/4,,3,,4,,3/5,,2/6,,1/7,,8,,1qq5[2:1],,,,2>4[5:1],,,,B3,,B4,,,,,,
5,,6,,4,,7h[4:1],,,,8,1h[4:1],,,,8,2/7<5[4:1],,,,2,,3,,4h[8:1],,,,,,,
6,,6,,6,5b,4b/7b,,,,,,2b/5b,,,,,2/5,3bx/4bx,,3/4,,3/4,,3/4,2bx/5bx,,,,,2b/5b,,
3,4,3,4,3,4,3,4,5bx/2bx,
1,7,1,7,1,7,1,7,1,7,8b,,8b,,8b,,8b-3[100:230]b,,8b,,,,,,,,,,,,,,,,,,,,,,,,,,,,,,,,,,,,,,,,,,,,
1b/8b,,,,,,4b/5b,,,,,,
6-8-2[4:1]/7>3[4:1],,,,6/7,,,,,,
1-7[8:1],,2-6[8:1],,1-5[8:1],,2-4[8:1],,1,,2,,,,,,
6-1-3[4:1],,1-3[8:1]b,,6,,6-2[8:1],,6,,B6f,,,,
B1/B4,,B5/B8,,,,Cf,,,,,,
1-5[8:1]/5h[8:1],,,,5-1[8:1],,,,1w5[8:1],,,,1b>3[8:1],,,,1b-7[8:1],,,,1b-5[8:1],,,,1b,,,,,,,,
2h[4:1]/4h[4:1],,,,,,7h[4:1]/5h[4:1],,,,,,,,
6b,,,,,,3b,,,,4-1[12:1]/5-8[12:1],,,,4>5[200:90]/5<4[200:90],,
{32}E1/E8/B8/B1/E2/B7/Cf/B2/E7/B6/E6/B5/E5/B4/E4/B3/E3,,,,,,,,,,,,,,,,,,,
{24}2bx,3x,4x,7bx,6x,5x,2bx,3x,4x,7bx,6x,5x,2bx,3x,4x,,,,,,,
1bx,2x,3x,7bx,6x,5x,1bx,2x,3x,7bx,6x,5x,1bx,2x,3x,7bx,6x,5x,
{16},,,,
5h[8:1]/6h[8:1],,,,3h[8:1]/4h[8:1],,,,
5>1[4:1],,1,,1<5[4:1],,5,,5-3-1[4:1],,1,,1-7-5[4:1],,5,,5p1[4:1],,,,1p5[4:1],,,,,,
2,,3,,2,,3,,2-7[8:1],,,,,,
5,,6,,5,,6,,5-8[8:1],,,,,,,,
2,,7,,1,,8,,1,,8-6[8:1],,1-5[8:1],,2-4[8:1],,A6,,A5,,A4,,,,1w5[8:1],,,,,,,,,,
4,,3,,4,,3,,4-1[8:1],,,,,,,,
7,,6,,7,,6,,7-2[8:1],,,,,,,,
6,,4h[8:1],,3,,5,,6-3[200:175]*>3[200:175],,,,,,,,,,,,,,,,,,,,,,,,
7-4[8:1],,7,,7/8-3[8:1],,8,,8/7-4[8:1],,,,,,,,
2-5[8:1],,2,,2/1-6[8:1],,1,,1/2-5[8:1],,,,,,,,
5,,6,,7,,8,,1,,1-3[8:1],,1-4[8:1],,1-7[8:1],,1-6[8:1],,1w5[1:3],,1bx,,1bx,,
