&title=蒼の音階
&artist=MIMI feat. 涼海ネモ
&first=0
&des=Ars1band
&lv_5=13+
&inote_5=(176)
{1}
,,
{4}
4-6[8:3],,,,
3-6[8:4],,,,
2-6[8:4],,,,
1-6[8:4],,,,
{4}
4-2[8:3],,,,
5-2[8:4],,,,
6-2[8:4],,,,
7pp2[8:6],,,,
{8}
4h[8:6],,,6h[8:3],,,,,
{8}
4h[8:6],,,3h[8:3],,,,,
{8}
4h[8:6],,,5h[8:3],,,,,
{8}
4pp4[8:4],,,1h[8:3],,,,,
{8}
5h[8:6],,,3h[8:3],,,,,
{8}
5h[8:6],,,6h[8:3],,,,,
{8}
5h[8:6],,,4h[8:3],,,,,
{8}
5qq6[8:4],,,6,,,8,,
{8}
7h[8:4],,E6`A6,,5h[8:4],,E6`A6,,
{8}
7h[8:4],,E6`A6,,1h[8:4],,E6`A6,,
{8}
7h[8:4],,E6`A6,,3h[8:4],,E6`A6,,
{8}
8pp4[8:5],,E6`A6,,,,E6`A6,,
{8}
2h[8:4],,E4`A3,,1h[8:4],,E4`A3,,
{8}
2h[8:4],,E4`A3,,5h[8:4],,E4`A3,,
{8}
2h[8:4],,E4`A3,,7h[8:4],,E4`A3,,
{8}
2>7[8:3],2,8,8,,B7`E8,B2`E2,,
{8}
5-8[8:4]/4,,2,2,,4,4,,
{8}
1-4[8:4],,5,5,,7,7,,
{8}
6,8,1,3h[8:2],,,5qq5[16:7],1>8[16:8],
,,,,,,C,,
{8}
2b^5[8:1]/1b,,8-4[8:1],8x-6[8:1],,,3x,,
{8}
2x-5[8:1]/1x,,8-3[8:1],8x^5[8:1],,,4x,,
{8}
3x-5[8:1]/5x,,8,7x-1[8:1],,4,2x,,
{8}
4-6[12:1],4-2[8:1],4-8[8:1],,,,1x/8x,,
{8}
7x^4[8:1],,1-5[8:1],1x-3[8:1],,,6x,,
{8}
7x-4[8:1]/8x,,1-6[8:1],1x^4[8:1],,,5x,,
{8}
6x-4[8:1]/4x,,2,3x-8[8:1],,5,7x,,
{8}
5-3[12:1],5^8[8:1],5-1[8:1],,,,2x/7x,,
{8}
1b^4[8:1]/5b,,6-4[8:1],6x^1[8:1],,,2x,,
{8}
1x-5[8:1]/5x,,6^3[8:1],6x^1[8:1],,,3x,,
{8}
2x-5[8:1]/5x,,7,6x-1[8:1],,4,2x,,
{8}
4^7[8:1],4^1[8:1],4-8[8:1],,,,1x/8x,,
{8}
1-5[8:1],1,4,6,8-4[8:1],8,5,3,
{8}
1<5[4:1],1,5qq5[8:3],5pp5[8:2],,,,,
{8}
3-1[8:1],2,7,5,6-8[8:1],7,2,4,
{8}
2-8[8:1],6-4[8:1],2pp2[8:3],6pp6[8:2],,,,,
{16}
1bx/5bx,,2,4,2,,8h[8:2],,,,4,,5,,6,,
{16}
2h[96:1]/8h[96:1],,,,6,,6h[8:2],,,,5,,4,,3,,
{16}
81,,7,5,7,,1h[8:2],,,,5,,4,,3,,
{16}
7h[96:1]/1h[96:1],,,,3,,3h[8:2],,,,6,,6,,6,,
{16}
38,,2,1,2,,7h[8:2],,,,1,,8,,7,,
{16}
5h[96:1]/3h[96:1],,,,6,,6h[8:2],,,,4,,3,,2,,
{16}
18,,7,5,6,,3,4,1,,6,5,7,,1,4,
{16}
2h[8:1],,6h[8:1],,4h[8:1],,8h[8:1],,
2,3,4,5,6,7,8,1,
{8}
5x-3[8:1],,A6`D7,,4-6[8:1],,A3`D3,,
{8}
5-3[8:1],,A6`D7,,4-6[8:1],2,2,,
{8}
7-5[8:1],,A1`D2,,2-4[8:1],,A8`D8,,
{8}
7-5[8:1],,A1`D2,,2-4[8:1],8,8,,
{8}
5^3[8:1],,A6`D7,,4^6[8:1],,A3`D3,,
{8}
5^3[8:1],,A6`D7,,4^6[8:1],2,2,,
{8}
7^5[8:1],,A1`D2,,2^4[8:1],,A8`D8,,
{8}
6<3[8:3],6,4,4,,B3`E4,B6`E6,,
{8}
8h[8:2],,3-5[8:1],,35,,6,,
{8}
7h[8:2],,5-3[8:1],,35,,2,,
{8}
3-5[8:1],,,8,46,,1h[8:2],,
{8}
5-3[8:1],5,2,2,6-2[6:1],6,1,1,
{8}
3h[8:5],,4,4,,1,12,,
{8}
7h[8:5],,8,8,,5,56,,
{8}
3^8[16:3],1<5[32:7],7,,,,3>5[16:5],,
{8}
8h[8:4],,,,
{48}
A3,D3,A2,D2,A1,D1,A8,D8,A7,D7,A6,D6,
{4}A5,
{8}
1b/2b-5[8:1],,5-3[8:1],7x-3[8:1],,,2x,,
{8}
8x/1x-6[8:1],,6-2[8:1],8x-4[8:1],,,1x,,
{8}
6x-1[8:1]/8x,,3,5x-2[8:1],,1,6x,,
{8}
4-2[8:1],6-8[8:1],5-1[8:1],,,,1x/8x,,
{8}
7x-4[8:1],,4-6[8:1],2x-6[8:1],,,7x,,
{8}
1x/8x-3[8:1],,3-7[8:1],1x-5[8:1],,,8x,,
{8}
3x-8[8:1]/1x,,6,4x^7[8:1],,8,3x,,
{8}
3-8[8:1],5-8[8:1],4-8[8:1],,,,7x/2x,,
{8}
1b-5[8:1]/5b,,6^3[8:1],8qq8[8:2],,,2x,,
{8}
2x^5[8:1]/1x,,6-2[8:1],7xqq8[8:2],,,1x,,
{8}
2x^5[8:1],,7,1x^6[8:1],,5,2x,,
{8}
4-8[8:1],6-2[8:1],5-1[8:1],,,,1x/8x,,
{8}
2-6[8:1],2,5,8,7-3[8:1],7,4,1,
{8}
1x^4[6:1],3^6[6:1],5^8[6:1],7,1x-5[8:1],,,,
{8}
6xV47[8:2]/4x,,2<6[24:5],2x,,5,5x,,
{8}
2-4[8:1],6-8[8:1],2V83[24:8],6V47[24:5],,,,,
{8}
8b/1b,3,4qq8[8:3],5x,,7x,7x,,
{8}
8x/1x,3,5qq8[8:3],6x,,8x,8x,,
{8}
2-4[8:1],2,1-5[8:1],1,2-4[8:1],2,6-8[8:1],6,
3V14[8:2],3,4pp4[8:2],4,,8x,8x,,
{8}
1x/2x-6[6:1],,6pp3[8:3],7x,,4x,4x,,
{8}
1^4[8:1],,1/8^5[8:1],,58,3x,1x,,
{8}
7-5[8:1],7,8-4[8:1],8,7-5[8:1],7,3-1[8:1],3,
7qq5[8:2],7,5qq4[8:2],5,,1x,1x,,
{8}
6b-4[8:1]/2b,4-7[8:1],3,1,2-8[8:1],8-3[8:1],7,5,
{8}
6-1[8:1],1-7[8:1],2,4,2-5[8:1],5-3[8:1],6,8,
{8}
7-5[8:1],7,3-1[8:1],3,6-4[8:1],6,2-8[8:1],2,
5-3[8:1],5,1-7[8:1],1,4w8[8:1],,,,
{8}
7-4[8:1],7,5,1,2-5[8:1],2,4,8,
{8}
7^4[6:1],3qq4[8:3],4pp4[8:2],,,,,,
{8}
3-8[8:1],1,7,5,6-1[8:1],8,2,4,
{8}
7,5,3,18,
2-6[8:1],7-3[8:1],2>8[8:29],7<1[8:28],
{1}
,,,,
{8}
5,4,3,4-2[8:2],,,,,
{8}
6,5,4,5-2[16:5],,,,,
{8}
7,6,5,6-2[16:6],,,,,
{8}
8,7,6,7pp2[8:6],,,,,E
