&title=overdead.
&artist=fn (frums + nitro)
&first=0.72
&des=neodead.
&lv_5=14
&inote_5=(500){8},,,,,,,,
8h[8:3],,,,,,8h[8:3],,,,,,,,,,4,,,5,,,4,,,5,,,4,,,5,,,
1h[8:3],,,,,,1h[8:3],,,,,,,,,,5,,,4,,,5,,,4,,,5,,,4,,,
8h[8:3]/7s3z7-4V27b[8:59],,,,,,8h[8:3],,,,,,,,,,4,,,5,,,4,,,5,,,4,,,5,,,
1h[8:3],,,,,,1h[8:3],,,,,,,,,,5,,,4,,,5,,,4,,,5,,,4,3,2,
1h[8:3]/8^5[8:8],,,,,,1h[8:3],,,,,,,,,,5/3^8[8:8],,,4,,,5,,,4,,,5,,,4,,,
8h[8:3]/1^4[8:8],,,,,,8h[8:3],,,,,,,,,,4/6^1[8:8],,,5,,,4,,,5,,,4,,,5,,,
1h[8:3]/2z6s2-5V72b[8:59],,,,,,1h[8:3],,,,,,,,,,5,,,4,,,5,,,4,,,5,,,4,,,
8h[8:3],,,,,,8h[8:3],,,,,,,,,,4,,,5,,,4,,,5,,,4,,,5,,,
1h[8:3]/8^5[8:8],,,,,,1h[8:3],,,,,,,,,,5/3^8[8:8],,,4,,,5,,,4,,,5,,,4,,,
8h[8:3]/1>6s2[8:26],,,,,,8h[8:3],,,,,,,,,,4,,,5,,,4,,,5,,,4,,,,,,
1h[16:12]/8h[16:12],,,,,,1h/8h,,1h[16:12]/8h[16:12],,,,,,1h/8h,,7,,3,4,3,,7,,3,4,3,,7,,3,4,3,,
2h[16:12]/1h[16:12],,,,,,2h/1h,,2h[16:12]/1h[16:12],,,,,,2h/1h,,8,,8,,8h[4:3],,,,4,,4,,4,,4,5,4,,
3h[16:12]/2h[16:12],,,,,,3h/2h,,3h[16:12]/2h[16:12],,,,,,3h/2h,,{6}8,7,6,{8}5,,,5,,,5,,5,,,5,,,
4h[16:12]/3h[16:12],,,,,,4h/3h,,4h[16:12]/3h[16:12],,,,,,4h/3h,,2h/5h,,,,2h/5h,,,,4h/7h,,4h/7h,,4h/7h,,,,,,
5h[16:12]/4h[16:12],,,,,,5h/4h,,5h[16:12]/4h[16:12],,,,,,5h/4h,,1,,6,5,6,,2,,7,6,7,,3,,8,7,8,,
6h[16:12]/5h[16:12],,,,,,6h/5h,,6h[16:12]/5h[16:12],,,,,,6h/5h,,1,,1,,1h[4:3],,,,5,,5,,5,,5,4,5,,
7h[16:12]/6h[16:12],,,,,,7h/6h,,7h[16:12]/6h[16:12],,,,,,7h/6h,,1,2,3,4,5,,,7,,,2,,4,,,3,,,
8h[16:12]/7h[16:12],,,,,,8h/7h,,8h[16:12]/7h[16:12],,,,,,8h/7h,,6h/1h,,,,8h/3h,,,,4h/5h,,4h/5h,,4h/5h,A5/A4,E6/E4,B6/B3,B7/B2,E8/E2,
A8/A1/D1f,,,,,,,,6,,5,,6h[8:7],,,,,,2,1h[8:49],,,,,5p4>5[8:42],,,,,,,,,,
,,,,,,,,,,,,,,,,,,,,,,,,,,,,,,,,,,
,,,,,,,,3,,4,,3h[8:7],,,,,,7,8h[8:5],,,,,4q5<4[8:42],,,,,,,,,,
4h[8:14],,,,,,,,,,,,,,A4,,,,B4,,,,C,,,,B8,,,,A8,,,,
7h[8:6],,,,,,2h[8:4],,,,4h[8:4],,,,7h,,7h[8:4],,,,5h[8:6],,,,,,4h[8:4],,,,7h[8:4],,8,1,
2h[8:6],,,,,,7h[8:4],,,,5h[8:4],,,,2h,,2h[8:4],,,,4h[8:6],,,,,,5h[8:4],,,,2h[8:4],,1,8,
7h[8:6],,,,,,5h[8:4],,,,3h[8:4],,,,1h,,1h[8:4],,,,7h[8:6],,,,,,6h[8:4],,,,5h[8:4],,4,3,
2h[8:6],,,,,,4h[8:4],,,,6h[8:4],,,,8h,,8h[8:4],,,,2h[8:6],,,,,,3h[8:4],,,,4h[8:4],,5,6,
7h[8:6],,,,,,3h[8:4],,,,5h[8:10],,,,8h,,8h,,,,3h[8:6],,,,,,6h[8:4],,,,5h,,1,1,
2,,E1,,,,6h[8:4]/C,,,,4h[8:10],,,,1h,,1h,,,,6h[8:6],,,,,,3h[8:4],,,,4h,,8,8,
7,,E5,,,,2h[8:4]/C,,,,4h[8:10],,,,8h,,8h,,,,5h[8:6],,,,,,7h[8:4],,,,2h,,5,5,
4,,E7,,,,7h[8:4]/C,,,,5h[8:10],,,,1h,,1h,,,,4h[8:6],,,,,,2h[8:4],,,,7h,,4,4,
,,E3,,,,C,,,,E2,E8,E4,E6,B2,B8,B4,B6,E1,B5,E3,B7,B3,E5,B1,E7,C,,,,,,,,
3V57V13V57V13[8:32],,,,A1,,,,,,A5,,,,,,,,,,A7,,,,,,,,,,,,,,
6V42V86V42V86[8:32],,,,A8,,,,,,A4,,,,,,,,,,A2,,,,,,,,,,,,,,
4V68V24V68V24[8:32],,,,A2,,,,,,A6,,,,,,,,,,A8,,,,,,,,,,,,,,
7>7>7[8:32]*<8[8:14],,,,,,,,,,,,,,,,A8/A6,,,,,,,,,,,,,,,,,,
2<2<2[8:32]*>1[8:14],,,,,,,,,,,,,,,,A1/A3,,,,,,,,,,,,,,,,,,
8>8qq5[8:28]*<8pp3[8:28],,,,,,,,,,,,,,,,D8/D1,,,,,,,,,,,,,,,,,,
7/B1/B2,,,,2/B8/B7,,,,6,,B3/B4,,5,,,,6,,,,4/B5/B6,,3,,,,5,,6,,,,4,,
8/E2/B2,,,,1/E8/B7,,,,7,,B3/E4,,5,,,,7,,,,4/B6/E6,,2,,,,5,,7,,,,4,,
6/E2/B1,,,,3/E8/B8,,,,8,,B4/E4,,5,,,,8,,,,4/B5/E6,,1,,,,5,,8,,,,4,,
E8/B8/B7/E2/B1/B2,,,,34,,,,18,,,,56,,,,E6/B6/B5/B4/B3/E4,,,,81,,72,,,,45,,36,,,,18,,
E8/B8/B7/E4/B4/B3,,,,12,,,,54,,,,78,,,,E2/B1/B2/E6/B5/B6,,,,34,,25,,,,78,,16,,,,34,,
B7/B6/E7/E3/B2/B3,,,,65,,,,18,,,,34,,,,E1/B8/B1/E5/B5/B4,,,,67,,58,,,,23,,14,,,,67,,
8b>8[8:30]/5b,,,,,,,,,,,,,,,,,,,,,,,,,,,,,,,,,,
1,,,,,,,,,,,,,,,,,,,,,,,,,A1,,,,,,,,,
2,,,,,,,,,,,,,,,,,,,,,,,,,A2,,,,,,,,,
3-1-4-8-5-7-4-8-2p7>7>3b[8:59],,,,,,,,,,,,,,,,,,,,,,,,,A3,,,,,,,,,
4,,,,,,,,,,,,,,,,,,,,,,,,,A4,,,,,,,,,
5,,,,,,,,,,,,,,,,,,,,,,,,,A5,,,,,,,,,
6,,,,,,,,,,,,,,,,,,,,,,,,,A6,,,,,,,,,
7-5-8-4-1-3-8-4-6p3<3<7b[8:59],,,,,,,,,,,,,,,,,,,,,,,,,A7,,,,,,,,,
8,,,,,,,,,,,,,,,,,,,,,,,,,A8,,,,,,,,,
1w5[8:62]*-4[8:62]*-5[8:62]*-6[8:62]*v4[8:62]*v6[8:62]*q5[8:62]*q6[8:62]*p5[8:62]*p4[8:62],,,,,,,,,,,,,,,,,,,,,,,,,,,,,,,,,,
,,,,,,,,,,,,,,,,,,,,,,,,,,,,,,,,,,
12,,83,,,,78,,16,,,,45,,36,,,,{16}84,73,62,51,,,,,51,62,73,84,,,,,84,73,62,51,,,,,51,62,73,84,,,,,
{8}5bq5q5q5q5q1q5q1q5q1q5q1q5V71V35V71V35V71V35V71V35<5<5<5<5s1b[8:127],,,,,,,,,,,,,,,,,,,,,,,,,,,,,,,,,,
,,,,,,,,,,,,,,,,,,,,,,,,,,,,,,,,,,
,,,,,,,,,,,,,,,,,,,,,,,,,,,,,,,,,,
,,,,,,,,,,,,,,,,,,,,,,,,,,,,,,,,,,
3h[8:6]/7,,7,,7,,7,,8,7,6,5,4h[8:6]/1,,1,,1,,1,,2,,4,,5,,7,,5,,4,,2,,
4,,5,,7,,5,,4,,2,,{12}5,6,7,4,3,2,6,7,8,3,2,1,{8}8h[8:6]/7,,7,,7,,7,,16,25,34,,83,74,
6h[8:16]/5,,5,,5,,5,,5,,5,,5,,5,,5,,7,,7,,4,,4,,6,,6,,3,,3,,
5,,5,,2,,2,,4,,4,,1,,1,,25,36,47,,58,,47,36,25,,14,,25,36,47,,58,,
6h[8:6]/7,,7,,7,,7,,7h[8:6]/4,,4,,4,,4,,4h[8:6]/8,,8,,8,,8,,8h[8:6]/2,,2,,2,,2,,2h[8:6]/4,,
4,,4,,4,,4h[8:6]/8,,8,,8,,8,,8h[8:6]/7,,7,,7,,7,,7h[8:6]/5,,5,,5,,5,4,3h[8:10],,4,5,
6,,6,,6,,6,,{12}2,3,4,5,6,7,8,1,2,3,4,5,8,7,6,5,4,3,2,1,8,7,6,5,1,2,3,4,5,6,7,8,1,2,3,4,5,6,7,
{8}8h[8:8],,7,,7,,7,,7h[8:8],,6,,6,,6,,6,5,4,,7,8,1,2,3,,15,,26,37,48,,37,26,
1x-4[8:1]/5x-8[8:1],,,,,,,,2x-7[8:1]/6x-3[8:1],,,,,,,,3x^1[8:1]/7x^5[8:1],,,,,,4x^2[8:1]/8x^6[8:1],,,,,,5x^3[8:1]/1x^7[8:1],,,,,,
8x-5[8:1]/4x-1[8:1],,,,,,,,7x-2[8:1]/3x-6[8:1],,,,,,,,6x^8[8:1]/2x^4[8:1],,,,,,5x^7[8:1]/1x^3[8:1],,,,,,4x^6[8:1]/8x^2[8:1],,,,,,
1x^4[8:1]/5,,,6,,,7,,8/4x^1[8:1],,,7,,,6,,5/1x^6[8:1],,,,4,,6x^1[8:1]/4,,,,5,,1x-5[8:1]/5,,,,8,,
8x^5[8:1]/4,,,3,,,2,,1/5x^8[8:1],,,2,,,3,,48,1,2,,C,,48,7,6,,C,,48,15,26,,C,,
37,,,4,5,4,5,,26,,,5,4,5,4,,37,,6,5,6,,26,,3,4,3,,37,,6,5,6,,
25,,,4,3,4,3,,74,,,5,6,5,6,,25,,3,4,3,,47,,6,5,6,,25,,3,4,3,,
48,,,6,5,7,6,,51,,,3,4,2,3,,48,,7,5,6,,15,,2,4,3,,48,,7,5,6,,
14,,,2,3,2,3,,85,,,7,6,7,6,,14,,2,3,1,,85,,7,6,8,,14,,2,3,1,,
4b<4z8[8:62]*>4[8:42]*<4[8:42]*-8[2.64##1.2]*-1[2.64##1.2]/5b>5s1[8:62]*<5[8:42]*>5[8:42]*-1[2.64##1.2]*-8[2.64##1.2],,,,,,,,,,,,,,,,,,,,,,,,,,,,,,,,,,
,,,,,,,,,,,,,,,,,,,,,,,,,,,,,,,,,,
,,,,,,,,,,,,,,,,,,,,,,,,,,,,,,,,,,
,,,,,,,,,,,,,,,,,,,,,,,,,,,,,,,,,,
,,,,,,,,,,,,,,,,,,,,,,,,,,,,,,,,,,
E
