&title=0次元恋愛感情
&artist=LeaF
&first=0.5
&des=好想写神谱
&lv_5=14
&inote_5=(130)
{16}Ch[8:2],,,,8,2h[16:9]/6h[16:11],,,,,,,,,,,,,2/6,,
{16}3h[8:1]/4h[8:1],,,,5h[8:1]/7h[8:1],,,,2/5,,3,4,1>4[8:1]/5<7[12:1],,2/6,,
{16}1pp8[16:3]/5,,,,1/8,,,,7qq6[32:5],,6/1,,3,,2h[8:6],,
{8}B4/E4,E1/B8,B4/B5,B8/B7,B5/E6,B6/E6,8b,,
{24}2/6,,3,4,,2,5,,3,4,,,1/6,,,8,7,8,7,,,1h[24:1]/6h[8:7],,,
{8}A7/E7,A5/E6,A8/B8,A4/B4,A1/E2,A3/E3,{24}2b,,,3/4,,1,
{8}2/8<5[8:1],,E4/B3,,2/4<7[8:1],,E2/B1,,2/8<4[8:1],,E2/E3,,3<7[8:1]/1,,E1/E2,,
{8}2/8<4[8:1],3h[8:1]/7,,,1/6,2h[16:3]/5,{16}4,4h[16:2],,3,
{32}2/5,,,1x,2x,3x,4x,,,,7/4,,,,3,,2/5,,,,4/6,,,,{12}1x>6[32:5],3x,5x,
{16}7,,,8,8<3[16:3],,1,,3,,,2,2,,8,,D7,,E7,B7,,C,,B3,,E3,D3,,Cf,,,,
{16}7/8>2[12:1],,6,,7q3[8:1],,5,,6qq4[8:1],,,,2,,,,
{16}3>1[12:1],,5,,4p8[8:1],,6,,5pp7[8:1],,,,1/5,,,,
{24}2,8,2,{16}7x,6x,4x/5x,,3h[8:1]/4,,2hbx[8:2],,1b,,1b,,,,
{16}5h[16:3]/7,,,4,4h[16:2],,1h[8:2],,3b<6b[12:1],,5b,,7b,,,,
{8}2h[24:2]/7h[24:2],4h[24:2]/5h[24:2],3/6,1/8,{12}2/7,3/7,4/7,{8}5/6,3/4,
{24}2,4,3,7,5,6,{16}3h[16:1],4h[16:1],1h[16:1],6h[16:1],8h[8:1],,4,,5,5,{24}2,4,3,
{24}5h,,7h,,1h,,{16}3h[16:1],7h[16:1],{24}4,5,3,{16}4,1h[8:1],,{32}8,7,{12}2/6h,4h,8h,
{24}3,7,2,6,1,5,8<2[16:3],,6,,4,,8w4[8:1],,,,,,,,,,,,
{1}8<4qq5>1[8:20]/1>5pp4<8[8:20],,,{8}4/5h[8:4],,4,,4,2h[24:2]/7h[24:2],4/5<8[8:1],3/6,
{24}4b/5b,,,,,,4>2[8:1],,7,5,,6,4,,,,,,5<7[8:1],,2,4,,3,
{24}5,,,,,,4>1[8:1],,7,5,,6,4,,,8,,8,2,,2,6,,6,
{24}4pp5[32:5],,,,,,4>1[8:1],,,8x,,,7qq6[32:5],,,,,,7,,,1x,,,
{16}2,2,5,5,4>5[8:4],4,7,7,,,,,,,,,
{16}8h[8:2],,,5,5,,4/6,,2h[8:2],,,6,6,,5/7,,
{16}1/8,,3h[16:2]/4hb[16:2],,,6hb[16:2]/7h[16:2],,,{24}1hb[8:1]/2,,,,2h[8:2],1>6[32:5],8,7,6,5,4,3,
{24},,,,,,1b/8b,,3,4,,6,5,,2,4,3,5,4,,7,5,,6,
{24}4,,7,5,,8,{16}6h[16:1],7h[16:1],3h[16:1],4h[16:1],1h[16:1],8h[16:1],{24}2,4,2,{20}6,3,7,2,8,
{16}1hb[16:1],4h[16:1],3h[16:1],8,5hb[16:1],6h[16:1],1h[16:1],4,3hb[16:1],8h[16:1],5h[16:1],6,2hb[16:1],4h[16:1],3h[16:1],1,
{32}1x,8,7,6,2x,3,4,5,7x,6,5,4,1x,2,3,4,5bxw1[8:1]/6x,,7,,4x,,,,5bx,,,,,,,,
{24}2,1,2,1,2,1,{16}3h[8:1]/8b,,4,3,7h[8:1],,5,6,2h[8:1],,4,,
{24}3/5h[8:1],,,1,,,2>5[8:1],4,,,6x,,2<7[8:1],,,1,,,2,,,3x,,,
{16}5/6h[8:1],,8,,1/2,3,4,,5/6h[8:1],,8,,1/2,3,4,,
{16}6/7,,8/7,,1/8,1/8,{24},,1,2,,4,3,,5,6h[8:2],,,,,,
{24}7qq6[32:5],6,5,4,3,2,1bx>4[8:1]/7bx,,,8,,,{16}1pp8[32:5]*<5[8:1],,8,8,1,,,,
{16}5,6,5h[8:5]/7,,4,,8,,3,,1<6[8:1],,2,,,4,
{16}4,,5,6,5h[8:4]/7,,1,,3,,1,8,7,,1/7,,
{16}D7,E7,B6,,B2,,E3,,D3,,B2/B7/Cf,,B3/B6/B4/B5/E5f,,,,
{24}2h[24:2]/4h[24:2],,,5h[24:2]/7h[24:2],,,1b/8b,,,2b/4b,,,4b/6b,,,6b/8b,,,8b/2b,,,4b/6b,,,
{24}7hb[12:1],,5hb[12:1],,3hb[12:1],,8hb[12:1],,5hb[12:1],,2hb[24:5],,,,,4b,,,8b/E3/B3f/E4/A3,,,,,,
{24}1h[8:3],,,,,,E3,E4,E5,E6,,,2h[8:3],,,,,,E4,E5,E6,E7,,,3h[8:3],,,,,,E5,E6,E7,E8,,,4h[8:3],,,,,,E6,E7,E8,E1,,,8h[8:3],,,,,,E7,E6,E5,E4,,,7h[8:3],,,,,,E6,E5,E4,E3,,,6h[8:3],,,,,,E5,E4,E3,E2,,,5h[8:1],,,,,,3<6[32:3]/4,,,2,,,
{8}1b,,3p6[32:4]/4,2,1b,,{16}3<6[32:3],4,2,,
{16}1b/3x,,,,{8}3>6[32:5]/5,2/4,1b,,3<6[32:3]/5,2/4,
{24}1b/3bx,,,,,8,7<4[8:1],,5,6,,8,7b,,,,,2,1<4[32:4],,3,4,,2,
{16}1b,,3,,2b/4,2/4,,5/6b,5/6,,{32}2b/8,3,4,5/6,,,1bx>4qq5[16:11]*<6pp5[16:11],,,,,,
{4}1b/Cf,,,,
{16}3/4,,5/7,5/7,,1/8,,3,4,2h[16:2]/5h[16:2],,,4/7,,1/2,,
{24}2/5,,3,4,,8,7,,2,1,,3,4,,1,8,,4,5,3,6,2,7,1,
{32}8,2,8,2,8,2,8,2,6x,,5,,4,,3,,1/2,,,,5/6,,,,3/4,,,,7/8,,,,
{24}1,6,3,4,2,5,{16},3/4,4/5,5/6,6/7h[8:2],,,,1,{32}2,,8,7,6,5,
{12}4/2,3/5,4/6,{16}5/7,8,{24}2,1,2,{16}8,4h[16:2]/7,,{32}8,7,{12}6x/3x,2x/5x,1x/4x,
{32}8,1,2,3,{24}5,4,5,3/6,,2/7,,1,8,1,,2/5,,3,4,{16}3h[16:1],7h[16:1],5h[16:1],1h[16:1],
{24}2b,3,4,5/6h[16:1],,,{32}8b,1,2,3,4/8h[16:1],,,,7b,8,1,2,3,4,5/7,,{12}4bx/6bx,3x/5x,2x/4x>5[0.615##3.46],
{16},,,,Ch[8:15],,,,,,,,,,,,,,,,B7,B8,B1,B2,
