&title=本当に凄いよなあ
&artist=Hyadain、板垣佑介、大竹智之 / 彼女、お借りします OST Vol.3
&first=0
&des=七海麻美
&lv_5=11
&lv_6=12
&inote_5=(140)
{1},
{8}2,3,4h[4:1],,,5h[4:1],,,
{8},B8,B2,,B4,,Chf[1:1],,,,,,,,,,
{8}7,6,5h[4:1],,,4h[4:1],,,
{8},18,2h[4:1],,4h[4:1],,3h[1:1],,,,,,6b,,,,
{8}6,7,8h[4:1],,,1h[4:1],,,
{8},B4,B6,,B8,,Chf[1:1],,,,,,B8/B1,,,,
{8}3,2,1h[4:1],,,8h[4:1],,,
{8},54,6h[4:1],,8h[4:1],,7h[1:1],,,,1h[8:4],,,,,,
{8}12,12,3/4h[4:1],,,2h[4:1],,,
{8},B8,B2,,B4,,Chf[1:1],,8h[2:1],,,,,,,,
{8}7,6,5h[4:1],,,3h[4:1],,,
{8},18,2h[4:1],,7h[4:1],,5h[1:1],,,,,,6b,,,,
{8}3,2,1h[4:1],,,7h[4:1],,,
{8},5,3,,A1,,Chf[1:1],,,,,,E7/E3,,,,
{8}6,7,8h[4:1],,,3h[4:1],,,
{8},45,3h[4:1],,1h[4:1],,2h[1:1],,,,8h[8:4],,,,,,
{8},,1xb-4[4:1],,4-7[4:1],,7-2[4:1],,2-5[4:1],,
{8}5-8[4:1],,8-3[4:1],,3,,6pp4b[8:6],,3qq5b[8:4],,,,,,,,
{8}8xb-5[4:1],,5-2[4:1],,2-7[4:1],,7-4[4:1],,
{8}4-1[4:1],,1-6[4:1],,6,,3qq5b[8:6],,6pp4b[8:4],,,,,,,,
{8}5pp5b[4:1],,5qq5[4:1],,,,,,4qq4b[4:1],,4pp4[4:1],,,,,7qq4[4:1],,C,,,
{4}2xb-6b[8:1],1xb-5b[8:1],8xb-4b[8:1],7bv2p4[4:1],,
{8},2,{4}2xb-6[5:1],6xb-2[5:1],2xbqq6<5b[4:3],,,,,
{8}3,2,1h[4:1],,,7h[4:1],,,
{8},B5,B3,,B1,,Chf[1:1],,7pp4[2:1],,,,,,,,
{8}6,7,8h[4:1],,,2h[4:1],,,
{8},45,3h[4:1],,1h[4:1],,2h[1:1],,,,,,7b,,,,
{8}7,6,5h[4:1],,,3h[4:1],,,
{24},,E1,B8,B7,E7,{8},,E4,,Chf[1:1],,,,,,B6/B5/B4/B3,,,,
{8}1,2,3h[4:1],,,5h[4:1],,,
{8},67,1h[4:1],,5h[4:1],,3h[1:1],,,,5h[8:4],,,,,,
{8},,78,,2,2h[4:1],,,,4h[8:7],B8,,{8}B2,,B4,,Chf[8:6],,1h[2:1],,,,,,
{8}7,6,5h[4:1],,,3h[4:1],,,
{8},18,3qq5b[8:5],,6pp4b[8:3],,C,,,,,,5bpp5b[1:1]*qq5b[1:1],,,,,,,,,,
&inote_6=(140){1},
{8}1xb,1xb,
{1}1xb-3pp6-8[1:11],,,,,,,,,,,
{8},,,,,,6xb,6xb,
{1}6xbv1<8v3>6[1:11],,,,,,,,,,,
{8},,,,,,,,
{16}B3,B6,A2,A7,B4,B7,A3,A8,B5,B8,A4,A1,B6,B1,A5,A2,
{16}B7,B2,A6,A3,B8,B3,A7,A4,B1,B4,A8,A5,B2,B5,A1,A6,
{16}B7,B2,A6,A3,B8,B3,A7,A4,B1,B4,A8,A5,B2,B5,A1,A6,
{16}B3,B6,A2,A7,B4,B7,A3,A8,B5,B8,A4,A1,B6,B1,A5,A2,
{4}C/B2/B3/B6/B7,C/E1/E5/B1/B4/B5/B8,C/D8/D2/D4/D6/E8/E2/E4/E6/B1/B2/B3/B4/B5/B6/B7/B8,,
{8},3xb,3xb,3xb,6xb,,6xb,,
{16}8x,7x,6x,5x,4x,3x,2x,1x,8x,7x,6x,5x,4x,3x,2x,1x,8x,7x,6x,5x,4x,3x,2x,1x,8x,7x,6x,5x,4x,3x,2x,1x,8x,7x,6x,5x,4x,3x,2x,1x,8xbv6[4:1]/4xbv2[4:1],,,,,,,,,,,,,,
{8}1xb,,1xb,,1xb,18,,27,,1-3-5[8:6]/8-6-4[8:6],,,,,,,,,,
{8}7xb,7xb,
{1}7xb>8v1>2-6>5v4>3[8:17],,
{8},,,,,,4xb,4xb,
{1}4xbpp5pp6pp7pp8[8:17],,
{8},,,,,,1xb,1xb,
{1}1xbv2>7v8[8:17],,
{8},,,,,,6xb,6xb,
{1}6xbv3>6[8:17],,,
{8}37,,26,26,,15,,84,
{16}37,8,1,2,3,2,1,8,1,2,3,4,5,6,7,8,,,,,{32}18,27,36,45,,,,,{8},,
{8}8>3[30:11],1>4[30:11],2>5[30:11],,,,,,
{8},2-5[4:1],2,,4-7[4:1],,6-1[1:1],,,,,,,,,,
