&title=Outernoid
&artist=Aoi feat. Airi
&first=0
&des=fullower
&lv_6=14
&inote_6=(172){1},
{8}
3h[8:1]/4h[8:5],,,5,5,5-3[8:1],,5/6h[4:3],,3h[8:1],,3h[8:1],,3,,,
4h[8:1]/5h[8:5],,,6,6,6-4[8:1],,3h[4:3]/6,,4h[8:1],,5h[8:1],,{16}6,7,8-4[8:1],1,2,3,
4b/8b,,5,,6,,{16}7,5,7h[8:1],,{8}6h[8:1],5h[8:1],4-7[8:1],,3/4,2,
{16}
1,8,1,,7,,6-3[8:1],8,6,8,6,,
8,,1,,2,3,2h[8:1],,3h[8:1],,4h[8:1],,5h[2:1],,,,6b,,7b,,8b,,1b-5[8:1],,{24}4h[4:1],,,,,,,,,
{16}
2b/6b,,3,,4/7,,6,,2/5,,3,4,5/6,,8h[4:1],,,,
2,,8/3,,7,,6-1[8:1]/2,,3,4,6/5,,,,
7/3,,6,,5/2,,3,,7/4,,6,5,4/3,,1h[4:1],,,,
7,,1/6,,2,,3/7,,5,4,3,2,1,8,
7b/3b,,6,,5/2,,3,,7/4,,6,5,4/3,,1h[4:1],,,,
7,,1/6,,2,,3-8[8:1]/7,,6,5,3/4,,,,
2/6,,3,,4/7,,6,,2/5,,3,4,5/6,,8h[4:1],,,,
2,,8/3,,7,,6/2,,4,5,6,7,8,1,
{8}
2/6<2[2:1],,,3,4,5<1[2:1],,,,2,,2,4,3,5,4,6,6h[4:3],,5,,7,,4<8[2:1],,,,2,3,4,,,
3>7[2:1]/7,,,6,5,4>8[2:1],,,,7,,7,5,6,4,5,2-6[8:1]/4,,2/4,5h[4:1],,7-2[8:1],,
4>5[2:1],,,,,,,,
4/5,1b/7b-1[8:1],,2/7,4-6[8:1],,4/7,1-6[8:1],,1/3,5-2[8:1],,5/8,6-1[8:1]*-4[8:1],,,,
3/8,1-5[8:1]/5,,1/6,8^3[8:1],,4/8,6qq8[8:3]*qq2[8:3],,,,,,{16}3,1,3,1,3,1,
{8}4/8-3[8:1],,4/8,5-1[8:1],,5/6,4-7[8:1],,2/4,8-4[8:1],,6/8,5bw1[8:1],,,,
{16}
3/7,,6,4,5,,3/8,,2,1,2,,7/8,,6,1,5,,3/4,,2,,1/7,,6,,4/5,,3,,2/8,,
{8}7bs3[8:6],,,2,{16}3,,,4,,5,,5h[16:3],,,1,8,7,6,5,4,3,2,5/1,,4/7>3[4:1],,,,
3V16[4:1],,,,5qq8[8:3],,,,5,,,,6,,6-2[8:1],,,,6/1^4[8:1],,,,5-1[8:1]/1,,,,2^7[8:1]/5,,,,2/6,,
5-8[8:1],,,,3^6[8:1]/5,,2,,1-4[8:1]/3,,8,,1/7^2[8:1],,6,,5-8[8:1]/7,,4-1[8:1],,5,,4,,7-3[8:1],,1h[16:1],,1h[16:1],,1h[16:1],,
2-5[8:1],,,5-2[8:1],2,,7,,6-1[8:1],,,1-6[8:1],6,,2,,4w8[8:1],,,,
4,,,,2/6,,4,,3/7,,5,,1/8,,2/4,,5/7,,3,4,3,4,2-6[8:1]/5,,3/4,,2/6,,,,
5,7,4,6,3,5,2-6[8:1],8,4,6,{16}2V48[4:1],,,,
8V25[4:1],,,,6pp3[8:3],,,,6,,,,2,,1-5[8:1],,,,1/4^7[8:1],,,,8-4[8:1]/4,,,,5^2[8:1]/8,,,,5/1,,
1-4[8:1],,,,1/7^2[8:1],,6,,5-8[8:1]/7,,4,,3^6[8:1]/5,,2,,1-5[8:1]/3,,8-4[8:1],,1,,8,,3-7[8:1],,5h[16:1],,5h[16:1],,5h[16:1],,
6-1[8:1],,,1-6[8:1],6,,3,,2-5[8:1],,,5-2[8:1],2,,7,,1^7[8:1]*-6[8:1],,,,1^3[8:1]*-4[8:1],,,,1s5[8:1],,,,,,,,{12}6b/4b,6/4,6/4,{16}6/4,,7/3,,
{12}6b/4b,6/4,6/4,{16}7,5,7,5,8,,2,4-6[8:1]*-2[8:1],,8/1,,4,,,,,
1^6[8:1],2,3,4,5,,,,2^7[8:1],3,4,5,6,,,,3p6[4:1],,4,,5h[8:1],,,5h[8:1],,,5h[8:1],,
7,5,7,5,8,6,8,6,
1,2,3,4,7,8,1,2,5,6,7,8,3,4,5,6,{12}8b,3,2,7,1,5,3bpp5[8:1]/7bpp1[8:1],,,{8}3/7,,
{16}3,,8-3[8:1],5,,,8,,5,,4-7[8:1],6,,,4,,
5b,,6/8,,1/7,,2/8,,1/3,4,5,6,3/7,4/8,5/1,2/6,
{1}3b>5[8:27]/7bp4[8:10],,
{2}1h[8:2],2h[8:2],3h[8:2],
{16}4-8[8:1],,3h[16:1],,3h[16:1],,3h[16:1],,
2h[8:2]/7h[8:2],,,,,,1,6-2[8:1],1,,,6,,,4>8[4:1],,4,,7,,6,,5h[2:1],,,,7,,4,,1,,
3b/7b,,6,4,5,,3b/4b,,2b/8b,,7-3[8:1],5,6,,7b/1h[8:2],,,,
5,6,2,3,{24}6,7,8,3p,4,5,{32}8,1,2,3,
{16}8-4[8:1]/4-8[8:1],,,,8/4>6[4:1],,,,6<4[4:1],,,,4-8[8:1],,,,
5,,7^4[8:1],,,,2-6[8:1]/7,,,,2/8^3[8:1],,,,5-1[8:1]/8,,,,5/7,,7-4[8:1],,,,
1-6[8:1]/7,,2,,3-8[8:1]/1,,4,,5>6[4:1],,6,,
5b/7h[4:1],,,,,,4/8,3/7,2/6-2[8:1],,8h[16:1],,8h[16:1],,8h[16:1],,
1h[1:1]/3h[4:1],,,,,,3,4,5h[8:1],,,5h[8:1],,,5,,6V41[4:1],,,7,,,7,,,,
7,,5-8[8:1],,3,,1b/5b,,2-5[8:1],3,4-8[8:1],,2b,,4b,,7^2[8:1],6,5,,7b,,4h[2:1],,5b,,6b,,7b,,8bv3[8:1]*^5[8:1],,,,,,,,
{16}
1b/6b,,2,,3/7,,6,,1/5,,{24}2,3,4,5/6,,,{16}8h[4:1],,,,
2,,8/3,,7,,6-1[8:1]/2,,{24}2,3,4,6/5,,,,,,
{16}
8/3,,7,,6/2,,3,,8/4,,{24}7,6,5,4/3,,,{16}1h[4:1],,,,
7,,1/6,,2,,3/7,,5,4,6,3,7,2,
{16}
8b/3b,,7,,6/2,,3,,8/4,,{24}7,6,5,4/3,,,{16}1h[4:1],,,,
7,,1/6,,2,,3-8[8:1]/7,,{24}7,6,5,3/4,,,,,,
{16}
1b/6b,,3/4,,{24}6,5,6,5,6,5,4b/7b,,,{24}2-6[8:1],3,4,5b/6b,,,{16}2b/8b,,,,
5b/7b,,3b/4b,,2b/8b,,1b/6b,,
{32}
2,3,4,5,6-2[8:1],7,8,1,2,3,4,5,,
