&title=4nim0sity|99.999999999%|
&artist=イチ
&first=0
&lv_5=13+
&des=100%憎しみ
&inote_5=(144)
,,,,
,,,,
,,,,
{8}5bx/3,6,5,3,4,7,5,6h[4:1],
4,3,5,6h[8:3],2-5[8:1],,,,
{8}4bx/6,3,4,6,5,2,4,3h[4:1],
5,6,4h[4:1],6,7,5h[4:1],7,8,
{8}6bx,,7,3,4,7,5,6h[4:1],
4,3,5,6h[8:3],2>5[8:1],,,,
{8}4bx/6h[8:3],,,3,5,6,4,3h[4:1],
5,7,4h[4:1],6,8,5h[4:1],7-5[8:1],8,
3b/7b,3h[4:1],4,4h[4:1],2,{24}2,3,4,{8}5,,
2/6,6h[4:1],5,5h[4:1],7,{24}7,6,5,{8}4,,
7/3,3h[4:1],4,4h[4:1],2,{24}2,3,4,{8}5,,
2/6,6h[4:1],4,4h[4:1],5,5,{24}4,6,4,{8}6,
3b,3h[4:1],1,1h[4:1],2,{24}2,3,4,{8}5,,
6/2,6h[4:1],8,8h[4:1],7,{24}7,6,5,{8}4,,
3/7,3h[4:1],1,1h[4:1],2,{24}2,3,4,{8}5,,
6/2,6h[4:1],8,8h[8:2],7,7,{24}6,1,6,{8}1,
5/2bx,3,5,4,5,6,4,3/7h[8:2],
3,4,7,3/6,3-6b[8:1]/6>3b[8:1],,,,
7bx/4,6,4,5,4,3,5,4/3h[8:2],
4,5,2/5h[8:2],2,3,4/3h[8:2],4qq4b[4:1],,
6bx,,5,6,4,6,5,4/7h[8:2],
4,3,2-6b[8:1]/8-4b[8:1],1,,,3/7,3/7,
3bxh[8:2]/7bxh[8:2],,,3/5,3-1[8:1]/5,,6,6h[8:2],
8,2,1/7h[8:2],3,2,4/8h[8:2],3,5,
{1}4s8[4:4],
6z2[4:4],
4s8[4:4],
{2}6V42[4:2],2V86[4:2],
{1}3s7[4:4],
5z1[4:4],
3s7[4:3],
{4}5V31[4:1],1V75[4:1],5w1[8:1],,
{8}3b-5[8:1]/7b,2,6/3,7,4/8>3[8:1],{24}7,6,5,{8}4/8,,
{8}6-4[8:1]/4,7,3/6,2,5/1<6[8:1],{24}2,3,4,{8}5/1,,
{8}3b-5[8:1]/5b,2,6/3,7,4/8>3[8:1],{24}7,6,5,{8}4/8,,
6v4[8:1]/4,7,3/6,2,1/5,3/7,{16}4x-1[8:1],4x,4x,4x,
{8}6b-4[8:1],7,3/6,2,5/1-6[8:1],{24}2,3,4,{8}5/1,,
{8}3-5[8:1]/5,2,6/3,7,4/8-3[8:1],{24}7,6,5,{8}4/8,,
{8}6b-4[8:1]/4b,7,3/6,2,5/1-6[8:1],{24}2,3,4,{8}5/1,,
3v5[8:1]/5,2,6/3,7,8/4,6/2,{32}1,8,7,6,5,4,3,2,
{8}1b-5[8:1]/5b,6-2[8:1],1>6[8:2],6,1,,7-4[8:1],8,
1-6[8:1],2,3-8[8:1]*-5[8:1],4,3,,1<5[8:1]/6,3/8,
1b/4b-1[8:1],,,{16}6,6,{8}6-8[8:1],1,6-2[8:1],2,
6-8[8:1],3,6>2[8:1],5,1-7[8:1],1-3[8:1],1-5[8:1],,
1bx,,4-8[8:1]/2-5[8:1],1,2/4>7[4:1],,6,6,
5-8[8:1],4,3-6[8:1],2,1-5[8:1],,8-4[8:1]/1,7,
8b/3b>8[8:1],,4xpp5[8:1],,8>3[8:1],,4qq3[8:1],,
5<8[8:1],,4,,1/5,3/7,2/6,3/7,
{8}8b-4[8:1]/4b,3-7[8:1],8<3[8:2],3,8,,2-5[8:1],1,
8-4[8:1],7,6w2[8:1],5,6,,8V24[8:1]/4,6/2,
8b/5b-8[8:1],,,{16}3,3,{8}3-1[8:1],8,3-7[8:1],7,
3-1[8:1],6,3<7[8:1],4,8-3[8:1],8-5[8:1],8-4[8:1],,
8bx,,5-1[8:1]/7-4[8:1],8,7/5<2[4:1],,3,3,
4-1[8:1],5,6-2[8:1],7,8-3[8:1],,1-5[8:1]/8,2,
1b/6b<1[8:1],,5xqq4[8:1],,1<6[8:1],,5pp6[8:1],,
4-1[8:1],,5,,2<7[8:1]/6,7>2[8:1]/3,,,
6b,5h[4:1],4,3h[4:1],2-4[8:1],{24}1,8,7,{8}6,,
7/3,4h[4:1],5,6h[4:1],7-5[8:1],{24}8,1,2,{8}3,,
6b/2b,5h[4:1],4,3h[4:1],2-4[8:1],{24}1,8,7,{8}6,,
7/3,4h[4:1],5,6h[4:1],8,8,{24}7<4[8:1],8,7,{8}8,
4b,2h[4:1],5,6h[4:1],8-3[8:1],{24}1,2,3,{8}4,,
2/6,7h[4:1],4,3h[4:1],1-6[8:1],{24}8,7,6,{8}5,,
3b/7b,2h[4:1],5,6h[4:1],8-3[8:1],{24}1,2,3,{8}4,,
2/6,7h[4:1],4,3h[4:1],1,1,{24}2>5[8:1],1,2,{8}1,
5b,6,7,8,8V64[8:2]/4,,3,,
2V48[8:2],,5,6,7V16[8:2],7,1,3,
2bpp8[8:3],,,7,7,,7-3b[8:1]/1-5b[8:1],6,
7x/1x,,2/6,3-1[8:1],1,3,7<4[8:1],8,
7b,,3,2,1-5[8:1],1,6,6,
7-3[8:1],7,4,4,5-1[8:1],5,8,8,
7bV51b[8:4],,8,,2,,5,,
{4}E3h[4:3],B3h[4:2],B6h[4:1],E7fh[192:1],
{6}4h[12:1],4h[12:1],4h[12:1]/5h[12:1],6h[12:1],6h[12:1],5h[12:1]/6h[12:1],
4h[12:1]/7h[12:1],3h[12:1]/8h[12:1],1h[12:1]/2h[12:1],{12}E3h[4:1],B3h[4:1],E4h[4:1],,,,
{6}5h[12:1],5h[12:1],5h[12:1]/4h[12:1],3h[12:1],3h[12:1],4h[12:1]/3h[12:1],
5h[12:1]/2h[12:1],6h[12:1]/1h[12:1],8h[12:1]/7h[12:1],{12}E7h[4:1],B6h[4:1],E6h[4:1],,,,
{6}3h[12:1],3h[12:1],1h[12:1]/3h[12:1],6h[12:1],6h[12:1],6h[12:1]/8h[12:1],
1h[12:1]/5h[12:1],2h[12:1]/6h[12:1],3h[12:1]/7h[12:1],4h[12:4]/8h[12:4],,,
{1}4w8b[36#32:3]/8,
{4},,{8}7x-2[8:1]/6x-3[8:1],5x/8x,D7f/A6/A7/E7h[384:1],,
{8}6bx-4[8:1]/1bx,7,2/6,8,5/1-6[8:1],{24}2,3,4,{8}5<8[8:1]/1,,
{8}3-5[8:1],2,7/3,1,4/8-3[8:1],{24}7,6,5,{8}4>1[8:1]/8,,
{8}6b-4[8:1],7,2/6,8,5/1-6[8:1],{24}2,3,4,{8}5<8[8:1]/1,,
{8}3-6[8:1],2,7/3,1,4/8,6/2,{16}5x-8[8:1],5x,5x,5x,
{8}3b-5[8:1],2,7/3,1,8>3[8:1]/4,{24}7,6,5,{8}8/4-1[8:1],,
{8}6-4[8:1],7,2/6,8,5/1<6[8:1],{24}2,3,4,{8}1/5-8[8:1],,
{8}3b-5[8:1],2,7/3,1,8>3[8:1]/4,{24}7,6,5,{8}8/4-1[8:1],,
{8}6-3[8:1],7,2/6,8,5/1,3/7,{32}8,1,2,3,4,5,6,7,
{8}8b-4[8:1]/4b,2-6[8:1],8<2[8:2],2,8,,1-4[8:1],8,
1/7-2[8:1],6,7/5-2[8:1]*v8[8:1],4,5,,3qq4[4:1]/7,4/6,
3b/5bpp4[4:1],,,{16}2,2,{8}2-4[8:1],1,2-6[8:1]/5,5,
2-4[8:1]/7,7,2V86[8:1]/1,1,5-3[8:1],5-7[8:1],5-1[8:1],5x,
5bx,,2-5[8:1]/6-2[8:1],3/7,2<5[8:2]/6,,3,3,
4-7[8:1],3,4/2-5[8:1],1,2/8-5[8:1],,3v4[8:1]/8,2,
3b/6b-1[8:1],,5xv4[8:1],,1-6[8:1],,5-8[8:1],,
3-1b[8:1],4,3,7-3b[8:1],8-5b[8:1],7<4b[8:1],8,7,
{8}1b-5[8:1],7-3[8:1],1>7[8:2],7,1,,8-5[8:1],1,
8/2-6[8:1],3,2/4w8[8:1],5,4,,6V85[4:1]/2,5/3,
6b/4bV25[4:1],,,{16}7,7,{8}7-5[8:1],8,7-3[8:1]/4,4,
7-5[8:1]/2,2,7V13[8:1]/8,8,4-7[8:1],4-1[8:1],4-8[8:1],4x,
4bx,,7v4[8:1]/3-7[8:1],6/2,7>4[8:2]/3,,6,6,
5-2[8:1],6,5/7-3[8:1],8,7/1v2[8:1],,6v5[8:1]/1,7,
6b/3b-8[8:1],,4xv5[8:1],,8-3[8:1],,4v7[8:1]*>1[8:1],,
4w8[8:1],,4,,2<7[8:1]/6,3/7>2[8:1],,,
{1}5b,,,,
E
