&title=Glorious Moment!
&artist=ナリタトップロード(中村カンナ)、アドマイヤベガ(佐々木瞳)、テイエムオペラオー(徳井青空)/アニメ「ウマ娘 プリティーダービー ROAD TO THE TOP」主題歌
&first=0.47
&lv_1=1
&lv_5=13
&des_1=音
&des_5=GANTZ
&wholebpm=198
&demo_seek=59.6
&demo_len=15
&inote_1=(198)
{4}1,8,1,8,1,8,1,8,1,8,1,8,1,8,1,8,1,8,1,8,1,8,1,8,1,8,1,8,1,8,1,8,
1,8,1,8,1,8,1,8,1,8,1,8,1,8,1,8,1,8,1,8,1,8,1,8,1,8,1,8,1,8,1,8,E
&inote_5=(143)
{12}
3h[4:1]/5h[4:1],,,,,4,4h[4:1]/6h[4:1],,,,,5,
3,5,3,5-8[6:1],,,53,,,3,7,2,
18,,,2,7,3,4-1[2:1]/5-8[2:1],,,45,,,
{16},,,,,,,,
(192)
{32},,,,
{16}
1,,8,,1,,8,,
,,28,,28,,,,
,,,,7,,71,,,,2,,28,,,,
,,,,2-5[8:1]/8-5[8:1],,,,28,,,,46,,46,,
,,2/5-7[8:1],,,,5-1[8:1],,,,
5,,7,,7,,
,,
1qq5[2:1],,2,,
31,,,,,,,,4,,
5,,36,,5,,3-1[8:1]/6-8[8:1],,,,36,,,,1-5[8:1]/8-4[8:1],,
,,18,,,,37,,,,8,,2-5[8:1],,8,,
2,,1,,1,,15,,,,8,,4,,7,,
3,,6,,2,,2/5<4[2:1],,,,,,,,,,
,,
,,
,
(198)
{16},
{16}
1b/6,,,,7,,7v4[8:1]/1,,,,1^4[8:1],,,,1,,
,,5,,6,,7,,83,,,,12,,12,,
3-1[8:1]/8,,,,7-5[8:1],,,,8-4[8:1],,,,6-1[8:1],,,,
3-7[8:1],,,,1-5[8:1],,,,1-4[8:1],,,,1,,,,
8b/3,,,,2,,2v5[8:1]/8,,,,8^5[8:1],,,,8,,
,,4,,3,,2,,16,,,,78,,78,,
6-8[8:1]/1,,,,2-4[8:1],,,,1-5[8:1],,,,3-8[8:1],,,,
6-2[8:1],,,,8-4[8:1],,,,8^5[8:1],,,,8,,,,1b/6b,,,,
2,7,2,,8h[4:1],,2,,2,,38,,38,,1,,
2-7[8:1]*-5[8:1],,,,2,,,,7,,4,,6h[8:1]/3h[8:1],,,,
25,,2^5[8:1]/5^8[8:1],,,,2/5-1[8:1],,,,5,,7,,,,
1,,2,,3h[8:1]/8h[8:1],,,,8,,7,,61,,,,
1,7,1-3[8:1],,7,,1-5[8:1],,7,,1,,7,,{24}71,2,3,
4,5,6,{16}7,,15,,,,2-8[8:1]/5-7[8:1],,25,,25,,,,
7-3[8:1]/8-4[8:1],,16,,78,,,,4pp1[8:3]/3pp1[8:3],,,,3b/4,,,,
,,,,
8,,8h[8:6],,,,1,,1h[8:3],,,,,,,,
,,7q8[8:3],,,,1,,1,,,,2V48[4:1],,,,
8p2[8:3],,,,7,,,,8,,8,,,,2,,
2,,1,,2-4[8:1]/8-4[8:1],,,,28,,,,,,,,
3,,3h[8:6],,,,4,,4h[8:3],,,,,,,,
,,2v4[8:1]/5,,,,2,,5p4[8:3],,,,5,,,,
2,,,,2,,,,24,,24,,,,35,,
35,,,,34,,4/3q5[8:3],,,,,,,,,,
6,,6h[8:6],,,,5,,5h[8:3],,,,,,,,
,,56,,,,47,,4v6[8:1]/7v5[8:1],,,,,,,,
,,4V26[4:1]/6,,,,4,,7^4[8:1],,,,7v4[8:1],,,,
7^5[8:1],,,,7w3[8:1],,,,7b,,,,,,,,
,,2h[8:1]/4h[8:1],,,,3h[8:1]/5h[8:1],,,,46,,5,,5,,
5,,68,,7,,7,,7,,28,,1,,1,,
1,,24,,3,,3-5[8:1],,,,3/7-5[8:1],,,,73,,
2,,1^4[8:1],,,,1,,7^4[8:1],,,,7,,,,
1,,1,,,,14,,25,,36,,,,8-4[8:1],,
3,,8-6[8:1],,,,8,,3,,,,36,,,,
45,,4b-8[8:1]/5b-1[8:1],,,,,,,,,,,,18,,
,,18,,27,,,,
2-4[8:1]/8,,8,,2-5[8:1],,8,,2-6[8:1],,8,,2,,,,
1/7-5[8:1],,1,,7-4[8:1],,1,,7-3[8:1],,1,,7,,,,
24,,24,,35,,35,,4v1[8:1],,6,,4,,,,
17,,1b-5[8:1],,,,1b-3[8:1]*-7[8:1],,,,1b-5[8:1],,,,1bw5[8:1],,
,,1b,,,,,,36,,3h[8:1]/6h[8:1],,,,3,,
8V64[4:1],,,,4V28[4:1],,,,8V64[4:1],,,,4,,,,
2,,24,,,,7,,75,,,,18,,2bV48[4:1]/7bV51[4:1],,
,,,,,,,,,,2-6[8:1],,1-5[8:1],,2,,
1,,,,3^8[8:1]/8^5[8:1],,38,,,,,,8,,7,,
8,,,,1^4[8:1]/6^1[8:1],,16,,,,,,,,1h[8:1]/2h[8:1],,
,,7qq3[2:1]/3,,,,7,,2-8[8:1],,,,2V48[4:1],,,,
2,,,,,,68,,6/8-4[8:1],,,,8^3[8:1]*^5[8:1],,,,
8b,,,,,,,,3h[8:1],,4,,6h[8:1],,5,,
3-1[8:1]/7-5[8:1],,,,3-5[8:1]/7-1[8:1],,,,7-3[8:1]/3,,,,73,,,,
2b/4b,,,,3,5,3-8[8:1],,5,,3,,5h[8:1],,,,
3b/5b,,,,4,6,4-1[8:1],,6,,4,,6h[8:1],,,,
4b/6b,,,,5,7,5-2[8:1],,7,,5,,6h[8:1],,,,
3b/6b,,,,4,6,4v1[8:1],,6,,4,,6,,6q8[8:3],,
,,46,,,,,,3pp1[8:3],,3b/8,,,,,,
,,7,,6,,5,,4^7[8:1]/1^4[8:1],,,,14,,,,
1-7[8:1],,5-3[8:1],,1v6[8:1],,5,,1v4[8:1],,,,1,,,,
84,,{24}8,7,6,5,4,3,2,1,8,{16}7,,,,5-8[8:1]/2-5[8:1],,,,
2b/5b,,,,,,,,,,,,,,,,
{2},,,E
