&title=名前のない怪物
&artist=EGOIST/タカオカミズキ feat.結月ゆかり
&first=0
&des=Tail_R
&lv_5=14
&inote_5=(180)
{1},
{1},
{1}2h[2:7]/4h[2:1],
{1}5h[2:1],
{1}6h[2:1],
{1}7-3[8:3],
{8}2hb[4:1]/4hb[4:1],,,7hb[4:1]/5hb[4:1],,,1bpp4[4:3]/8bqq5[4:3],,
{1},
{8}3qq6[2:1]/5h[1:1],,,,,,,,
{8}8>3[8:1],,7h[4:1],,4,3h[4:1]/5h[4:1],,,
{4}2h[4:3],E5,E6,E7,
{4}3h[4:3],E6,E7,E8,
{4}4h[4:3],E7,E8,E1,
{4}5h[4:3],1-6[4:1],,,
{8}3hb[4:1]/5hb[4:1],,,4hb[4:1]/6hb[4:1],,,2bpp1[4:3]/7bqq8[4:3],,
{1},
{8}7qq3[2:1]/1h[1:1],,,,,,,,
{1}4qq6[2:1]*qq5[2:1],
{1}8b<1>8[2:7],
{16},,,,,,,,,,,,,,E4,E5,
{1}E6,
{1},
{1}3/4,
{1}5/6,
{1}7/8,
{1}1-5[8:3]/2-5[8:3],
{1}4/5,
{1}3/6,
{1}2/7,
{1}8^5[8:3]/1^4[8:3],
{1}6/5,
{1}4/3,
{1}2/1,
{1}8-4[8:3]/7-4[8:3],
{16}3h[4:1],,,,4,,,,,,2/5,,2/5,,,,
{16}7h[4:1],,,,5,,,,,,8/4,,8/4,,,,
{16}2h[4:1],,,,8,,,,,,3/7,,3/7,,,,
{16}4xV25[4:1]*pp5[4:1],,,,,,,,,,,,3b/7b,,,,
{8}2xh[4:1],,E4,,7,7,7/E1,,
{8}4h[4:1],,E5,,6,6,6/E8,,
{8}3h[4:1],,E2,,8,8,8/E6,,
{8}1h[4:1],,E3,,5-1[8:1],6,7/5x,,
{8}7h[4:1],,E6,,2,2,2/E1,,
{8}5h[4:1],,E5,,3,3,3/E2,,
{8}6h[4:1],,E8,,1,1,1/E4,,
{8}4pp6b[6:1],,2,,8^3b[8:1],,8x/7x,,
{8}3hxb[4:1]/4b,,B2,,7/8,7,7/B5,,
{8}1h[4:1]/8,,B3,,5/4,5,5/B7,,
{8}2h[4:1]/1,,B3,,8/4,8,8/B6,,
{8}4h[4:1]/5,,E3,,8q4[8:1]*p4[8:1],7,8x,,
{8}6h[4:1]/5,,B7,,2/1,2,2/B4,,
{8}8h[4:1]/1,,B6,,4/5,4,4/B2,,
{8}1h[8:1]/3h[8:1],,8h[8:1]/4h[8:1],,7h[8:1]/5h[8:1],,6h[8:1],,
{16}4,5,3,4,2,5,1,6,8bx/7bx,,E4f/B3/B4/E5/E3,,,,1x,,
{16}2b-5[8:1]/8b,,,,2/4,,6,,5/7,,3,4,3,,2h[4:1]/6,,
{8}8^3[8:1],8,4-8[8:1],4,7^4[8:1],7,1,2,
{16}3-8[8:1]/5,,,,3/1,,7,,6/2,,7,5,7,,3,4,
{16}3^1[8:1],,3,,7-5[8:1],,7,,8-4[8:1],,8,,6,,6h[4:1],,
{16}5x,,5,6,4,,3/7,,2-5[8:1],,8-6[8:1],,2,,8,,
{16}4,,4,5,3,,2/6,,1-4[8:1],,7-5[8:1],,1,,7,,
{16}3,,3,4,2,,1/5,,8-3[8:1],,6-4[8:1],,8,,6,,
{16}1x,2,3,4,7x,6,5,4,8x,1,2,3,4/8b,,,,
{16}7x-4[8:1]/1x,,,,7/5,,3,,4/2,,6,5,6,,7h[4:1]/3,,
{8}1^6[8:1],1,5-1[8:1],5,2^5[8:1],2,8,7,
{16}6-1[8:1]/4,,,,6/8,,2,,3/7,,2,4,2,,7,5,
{16}7x-1b[8:1],,7x,,2x-6b[8:1],,2x,,5x-3b[8:1],,5x,,2,,2h[4:1],,
{16}4x,,4,3,5,,6/2,,7-4[8:1],,1-3[8:1],,7,,1,,
{16}5,,5,4,6,,7/3,,8-5[8:1],,2-4[8:1],,8,,2,,
{16}6,,6,5,7,,8/4,,1-5b[8:1],,4,,1,,3,,
{16}2x,4,3,6x,4,5,1x,4,3,3,5x,4,6x-1b[8:1]*-2[8:1],,,,
{1}6bxqq2>6qq8[2:7],
{1},
{1},
{1},
{8}3,4h[4:1],,5,4h[4:1],,3,4h[4:1],
{8},5,4h[4:1],,3,3,4,3,
{8}6,5h[4:1],,4,5h[4:1],,6,5h[4:1],
{8},4,5pp7[6:1]*qq3[6:1],,,,,,
{8}7hx[2:3],E2,E3,E4,E5,,E1,E2,
{8}E3,E4,E5,,3x-5[8:1],,,,
{8}6hx[2:3],E2,E3,E4,E5,,E1,E2,
{8}E3,E4,E5,,2x-4[8:1],,,,
{8}8hx[2:3],A2,A3,A4,A5,,A1,A2,
{8}A3,A4,A5,,3x^5[8:1],,,,
{8}7hx[2:3],D2,D3,D4,D5,,D1,D2,
{8}D3,D4,D5,,4x^2[8:1]*^6[8:1],,,,
{1}1bxh[1:4]/7bx,
{1},
{1}4x^2[2:1],
{1}8x^6[2:1],
{1}4hx[4:15],
{1},
{1}2x-7[2:1],
{1}6x-3[2:1],
{8}E6/3x,3,E7/3,3,E8/3,,E6/2,2,
{8}E7/2,2,E8/2,,1-4[8:1]/5-8[8:1],,,,
{8}E4/7x,7,E3/7,7,E2/7,,E4/6,6,
{8}E3/6,6,E2/6,,5v7[8:1]/1v3[8:1],,,,
{8}E5/3x,3,E6/2,2,E7/1,,E5/6,6,
{8}E4/7,7,E3/8,,1-5[8:1]/2-6[8:1],,,,
{8}4/7,3,2/6,1,8/7,6,4/5,3,
{8}2V47[4:1],,7V15[4:1],,6xh[4:1],,,,
{8}2b-4[8:1]/6b-8[8:1],,2/6,,1-5b[8:1]/5,3/7,1,,
{16}4/6,,2,1,3,,4/5,,8-4[8:1]/7-4[8:1],,6,,8x/7x,,,,
{8}3-1[8:1]/5-7[8:1],,3/5,,8-4b[8:1]/4,2/6,8,,
{16}1/7,,4,5,3,,2/6,,1,7,2,6,3,,4/5,,
{24}2bx,3x,4x,5x-1[12:1],,,8x,,,8bx,7x,6x,5x-1b[12:1],,,2x,,,2bx,3x,4x,5xV38[4:1]*V72[4:1],,,
{8},,,,3,3,2/4,,
{16}5-3[8:1]/7-5[8:1],,,,5/7,,,,1-5b[8:1]/5x,,3/7,,1,,,,
{16}4x,6,5,7,3,5,4,6,2,4,3,5,1b,,,,
{8}7x-5[8:1]/3x-1[8:1],,7/3,,8-4b[8:1]/4,6/2,8,,
{16}5/3,,7,8,6,,5/4,,1-5[8:1]/2-5[8:1],,3,,1x/2x,,,,
{8}6-8[8:1]/4-2[8:1],,6/4,,1-5b[8:1]/5,7/3,1,,
{16}8/2,,5,4,6,,7/3,,8,2,7,3,6,,5/4,,
{24}7bx,6x,5x,4x-8[12:1],,,1x,,,1bx,2x,3x,4x-8b[12:1],,,7x,,,7bx,6x,5x,4xV61[4:1]*V27[4:1],,,
{8},,,,6,6,7/5,,
{16}4-6[8:1]/2-4[8:1],,,,4/2,,,,8w4b[8:1]/4x,,6/2,,8,,,,
{16}5x,3,4,2,6,4,5,3,7,5,6,4,8,6,7,5,
{1}Cf,
{1},
{1},
{1},
{8}5qq5[1:1],,5^7[4:1],,,,,,
{8}5qq5[1:1],,6^8[4:1],,,,,,
{8}5qq5[1:1],,7^1[4:1],,,,,,
{2}5xqq6[2:1]*-1b[4:1],,
{4}3-8[4:1],8-3[4:1],A7,E6,
{4}5-1[4:1],1-5[4:1],D3,E4,
{4}4-7[4:1],7-4[4:1],B2,E1,
{8}7x^5[8:1],7x,1x^3[8:1],1x,8x-4[8:1],8x,2x,,
{16}3h[16:3]/5,,,5,4,,3/5,,1x-4[8:1]/7x,,7,,6,,5,,
{16}6h[16:3]/4,,,4,6,,7/1,,5x-8b[8:1]/3x,,3,,2,,1,,
{16}1/7,,2,4,3,,2/5,,1,6,8,7,4,5,3,6,
{8}2bx<1<8<7<6>5>4b[16:5],,,,8hbx[8:3],,,3,
{16}2b-6[8:1]/1b,,,,2/4,,7,,8/5,,3,4,2,,1/6h[4:1],,
{8}8-3[8:1],8,4-8[8:1],4,2-5[8:1],2,7,7,
{16}4/6^1[8:1],,,,6/1,,3,,4/8,,7,5,6,,2,1,
{8}3^6[8:1],3,8-4[8:1],8,5-2[8:1],5,{16}1,8,7,6,
{16}2x/5x,,2,1,3,,4/8,,5-2[8:1],,1-5[8:1],,5,,1,,
{16}3,,3,4,2,,1/6,,8-3[8:1],,5-1[8:1],,8,,5,,
{16}4,,4,5,3,,8/7,,1-5[8:1],,6-1[8:1],,1,,6,,
{16}5,4,3,2,8,7,6,5,{32}1x,2,3,4,5,6,7,8,1/Cf,,,,,,,,
{16}7b-3[8:1]/8b,,,,7/5,,2,,1/4,,6,5,7,,8/3h[4:1],,
{8}1-6[8:1],1,5-1[8:1],5,7-4[8:1],7,2,2,
{16}5/3^8[8:1],,,,3/8,,6,,5/1,,2,4,3,,7,8,
{8}6x-3b[8:1],6x,2x-7b[8:1],2x,4x-8b[8:1],4x,{16}1,2,3,4,
{16}7x/5x,,7,8,6,,5/1,,4-7[8:1],,8-4[8:1],,4,,8,,
{16}6,,6,5,7,,8/4,,1-6[8:1],,4-8[8:1],,1,,4,,
{16}5,,5,4,6,,1/2,,8-4b[8:1]/4,,3,,8/2,,1,,
{16}8x,7,1,5x,4,6,2x,1,3,3,7x,5,6x-4b[8:1]*-3[8:1],,,,
{1}6bpp3>6pp4[2:3],
{8},,,,,,,3,
{8}3h[4:1]/4,,B1/E1,,7h[4:1]/8,,E5/B5,,
{4}6h[4:3]/1b,2b,3b,4b,
{16}3xh[16:3]/4,,,5,4,,6/5,,4,7,3,8,2,1,3,4,
{16}2hx[16:3],,,4,3,,4/5,,3,6,2,7,1,8,2,1,
{16}3,,3/4,,6,,6/5,,7,,8/6,,2,,1/3,,
{16}6,5,7,4,8,1,7,2,5,4,6,3,{24}7x,8x,1x,2x,3x,4x,
{8}1bx,1h[4:1],8,2,6,6h[4:1],7,5,
{8}2h[4:1],4,1,7,6h[4:1],8,5,2,
{8}3/5,4,2/8,1,7/5,6,3/1,2,
{16}4,5,3,6,2,5,3,6,1,5,3,6,8b,,,,
{16}7xh[16:3]/5,,,4,6,,3/5,,2,4,1,5,8,6,1,7,
{16}2hx[16:3],,,5,3,,6/4,,3,5,4,6,5,7,1,8,
{16}3b,4,3,5,4,5,2b,4,2,6,4,6,1b,4,1,7,
{16}8b,6,3,1b,4,7,2b,5,{24}8bx,1,2,3/5bx,6x,7,8bx/1,2,3,4/6bx,7,8hx[48:26],
{2},{32}4bx-8^1s5[1:4]*-8^7z3[1:4],7x/3x,2x/6x,5x/1x,,,,,,,,,
