&title=positive dance - "Final RAVE"
&artist=Cranky
&first=0.073
&des=star night
&des_1=
&des_5=
&lv_1=1
&lv_5=13
&inote_1=(150){4},
E
&inote_5=(150){4},,,,,,,,6b,
6,6,6,
5,5,5,5,
4,4,4,4,
3,3,3,3,
{8}6,5,6,5,6,5,{4}6h[8:1],
{8}5,4,5,4,5,4,{4}5h[8:1],
{8}3,4,3,4,3,4,{4}3>5[4:3],
{1}3h[4:3],
{8}4b/2-4[8:1],2,,,3/5-1[8:1],5,,,8/2-4[8:1],
2,,,5/6-8[8:1],6,,,7/1-5[8:1],
1,,,4/6-8[8:1],6,,,2h[4:1],
1,{16}1,,,7,{8}5h[4:1],6,{4}6,
{8}5/7-5[8:1],7,,,6/4-8[8:1],4,,,1/7-5[8:1],
7,,,4/3-1[8:1],3,,,2/8-4[8:1],
8,,,5/3-1[8:1],3,6,7,
{16}8,1,8,1,7,2,7,2,6,3,6,3,5-7[8:1],4,5,4,
{4}5b-1[8:1],{8}5/8,8,{16}2>5[8:1],1,{8}2,{4}2/8,
{16}6-1[8:1],5,,5,{8}6,4,3-1[8:1],8-4[8:1],3,8,
{4}2h[8:1],{16}4,3,,3,{8}5-1[8:1],4,{4}5,
{8}3-5[8:1],3,7-3[8:1],8,{4}7/1-5[8:1],1/6,
{8}7h[8:7],5,,5,,5,{16},,5,6,
{8}3h[8:7],5,,5,,5,{16},,5,4,
{8}6,4,6,4,6,2,{16}4,3,{8}4,
2h[4:3],3,,3,,3,4-2[8:1],3/5,
{4}6/4b-8[8:1],4/1,{8}7<4[8:1],8,{4}7/1,
{8}3-8[8:1],4,{16}3,5,,,{8}6-8[8:1],1-5[8:1],6,1,
{4}7h[8:1],{16}5,6,{8}3,{16}4-8[8:1],5,{8}3,{4}4/6,
{8}6-4[8:1],6,2-6[8:1],1,{4}2/8-4[8:1],8/3,
{8}2h[8:7],4,,4,,4,{16},,4,3,
{8}6h[8:7],4,,4,,4,{16},,4,5,
{8}3,5,3,5,3,7,{16}5,6,{8}5,
{16}7,4,7,4,6,3,6,3,5,2,5,2,4>6[4:5],1,4,1,
{1}4b,
6>1[1:1],
1<5[1:1],
{2},6h[2:5]/4h[2:5],
,,,,,,{1}1b>8[2:7],
,,,{8}1h[1:1],
,,,,3,{4}4,
5h[1:1],,,2,
{1}3h[1:1],
7h[1:1],
{8}3,3,6,5,2,4,3,3,
5,5,3,4,5,3,5,5,
4,4,6,5,4,2,{4}3h[4:1],
,,5b/1b,3/7<4[8:1],
{8}7/8,1,{4}5/2>5[8:1],{8}2/1,8,{4}4/7<4[8:1],
{8}7/8,1,2/5>2[8:1],6,5/7,8,{4}1>4[8:1],
{8}1/8,7,{4}3/6<1[8:1],{8}6/5,4,{4}8/3>8[8:1],
{8}3/4,5,6/1<6[8:1],2,1/3,4,5V31[4:1],5,
,,6V42[4:1],6,,,7V53[4:1],7,
,,8V24[4:1],8,,,1V35[4:1],1,
,,2V46[4:1],2,,,3,3,
{1}4>5[2:1],
{4}1b,2b,3b,{16}4,5,4,5,
{8}3-8[8:1],4,{16}3,,,4,{8}3-8[8:1],5,{16}3,,,5,
{8}4-8[8:1],5/3,{16}4,,,6,{8}5-1[8:1],6/4,{4}5,
{1}8h[4:3]/2<4[2:1],
{8}6-1[8:1],5,{16}6,,,5,{8}6-1[8:1],4,{16}6,,,4,
{8}5-1[8:1],4/6,{16}5,,,3,{8}4-8[8:1],3/5,{16}4/2,,,3,
{8}5-1[8:1],4/6,{4}5/7,{16}8,2,8,2,7,3,7,3,
6b,2,6,2,6,2,6,2,5,1,6,2,7,3,8,4,
{4}1b-5[8:1],{8}1/8,7,{16}6<1[8:1],4,{8}5,{16}6,5,,,2,
1,{8}2,{16}8,5,,5,{8}8-4[8:1],3-1[8:1],8,3,
5,5,4/2,3,{16}2-8[8:1],4,3,4,{4}2,
{8}7/1,6,8/2,4,{16}6,5,6,4,{4}5,
8-4[8:1],{8}8/1,2,{16}3>8[8:1],5,{8}4,{16}3,4,,,7,
8,{8}7,{16}1,4,,4,{8}1-5[8:1],6-8[8:1],1,6,
4,4,5/7,6,{16}7-1[8:1],5,6,5,{4}7,
{16}2,8,3,7,1,8,3,6,1,7,2,5,{4}8-4[8:1],
{8}8b/2-5[8:1],1,2/7-4[8:1],8,{16}7>2[8:1],3,,3,{8}7,{16}4,4,
1,3,1,3,{8}7,5/6,7/3-6[8:1],2/1,{4}3/8-4[8:1],
{8}8/7-5[8:1],6,7/2-6[8:1],1,{16}2<7[8:1],4,,4,{8}2,{16}5,5,
8,6,8,6,{8}2,4/3,2/6-3[8:1],7/8,{4}6/1-5[8:1],
{8}1/7<4[8:1],8,7/2-5[8:1],1,{16}2<7[8:1],6,,6,{8}2-4[8:1],5-1[8:1],
2,5,{16}3,3,8,8,5,6,3,7,4>1[8:1],5,2,6,
{8}4b-8[8:1],5,4/2-6[8:1],1,{16}2,7,,7,5b,6,3,7,
4,5,2,6,3,4,1,5,{24}2,3,4,5,6,7,2,3,4,5,6,7,
{1}8b-4[2:7],
,,,{8},6,
5,4,{16}5,4,,3,,,,,{8}4,
4h[16:3],{16},,,5,,,{8}5h[16:3],,,,6,
5,4,{16}5,4,,3,,,,,{8}4,
4h[16:3],{16},,,5,,,{8}5h[16:3],
E
