&title=Axium Crisis
&artist=ak+q
&first=0.11
&des=水中贵族
&wholebpm=170
&lv_5=14
&inote_5=(170)
{1},
{8}3h[4:1]/4h[4:3],,,2h[1:0],,,,,
6h[4:1]/5h[4:3],,,7h[1:0],,8h[1:0],,,
2h[8:6]/3h[1:0],,4h[1:0],5h[1:0],,,,,
7h[8:5]/6h[1:0],,5h[1:0],4h[1:0],,,,,
1h[4:1]/8h[4:1],,,2h[1:0]/7h[1:0],,1h[1:0],,,
6<4[8:20]/4h[1:0],,,,3h[1:0],,,,1h[1:0],,,,,,,,5h[4:3],,,,,,,,
2x-4[8:1]/6x,,5,5-2[6:1],,7h[8:1],,7x,
8v7[6:1],,1,1,,3,2x/6x,,4/5^7[8:1],,3,2-6[6:1],,
7,,8,8x^3[6:1],,,,5x/6-1[6:1],,,,3,,4/5,
{16}6,,,,4,,3-5[8:1],,1,,8,,,,
7x-3[6:1],,,,1,,1,,2x^4[8:1],,,,
{32}A6,D7,,,,,,,A4,D4,,,,,,,
A5,D6,,,,,,,A3,D3,,,,,,,
{16}7,,2x/6,,5,3,6,4,7xv2[8:1]*v6[8:1],,,,,,,,
{1}1xv6-8^7-5>5-3^2-4v1[4:15]/Cf,,,,
{4}Ch[1:4],,,,,,,,
1h[4:1],,2h[4:1],,3h[4:1],,4h[4:1],,
{4}3h[2:1],A7,5h[2:1],D2,
4h[2:1],E8,6h[2:1],A1,
{8}3h[4:1],,E6,E7,4h[8:3],E3,E2,,
8h[8:1],2,7,1,6h[8:1],5,7,4,
{16}A6,E6,E5,A4,D7,B6,B4,D4,
A7,B7,B3,A3,D8,B8,B2,D3,
6h[16:1],,4h[16:1],,
5h[16:1],,3h[16:1],,
4h[16:1],,2h[16:1],,
8h[16:1],,1h[16:1],,
7x,6,5,4,1x,2,3,4,8x,7,6x,5,2x,3,4x,5,
7x,6x,7,8,7x,1,7,2,7x,3,7,4,6xh[32:1],,,,
{24}2x/5x,3/6,4/7,5x/8x,,,
{16}2,,8,,1x^4[8:1]/7,,,,
{24}1x/E5,E6,E7,E8,,,
{16}2x-4[8:1],,1,,2x/8,,,,
4x/6v3[8:1]*-1[8:1],,,,6x,,,,
2,,8-4[8:1],,1x,1,8,,2x^5[8:1],,,,
{24}2x/E6,E7,E8,E1,,,
{16}2-6[8:1],,8,,2/7x,,,,5w1[8:1],,,,
5,,,,3/7,,4,5,3,6,2x,,5,4,6,3,7x,,
3,4,2,5,1x,,6,5,7,4,8x,,2,,3/5,,6,,
1x/7x,,6,5,6,5,8x,,3,4,3,4,
1x,,7x/2h[1:0],6,5/2xh[1:0],4,
1x,,8x/2h[1:0],7,6/2xh[1:0],5,1xw5[8:1],,,,1,,,,
3x,4x,3x,4x,1x,,6x,5x,6x,5x,8x,,
3x,4x,2x,5x,1x,,
6x,5x,7x,4x,8x,3xh[16:5],7xh[4:1],,,,,,,,2h[4:1]/6h[4:1],,,,,,,,
4V61[16:9]/8V25[16:9],,,,,,,,,,,,,,,,
3x/7x^4[8:1],,,,1/7,,2,,
{16}3h[8:1],,2x,1,8,7,6,5,4x/3,,
2,,3,3,8,,5/6h[4:1],,1,,5h[4:1],,8,,
7v4[6:1],,7,,3,,2,,1,,6,5,6,4,5,3,
7xp5[16:5],,7,,3,,2,,1x^4[6:1],,1,,6,,7,,
8xpp5[16:5],,8,,5,,4,,3x^8[6:1],,3,,5,,6,,
7h[8:1],,1x,8,2x,8,3,8,4h[8:1],,8x,4,7x,4,6,4,5x,,
1,,4^2[8:1],2,8,,7x/4q5[16:5],,,,1x/4,,,,
2,,2,,5,4,7,,2x-4[8:1]/6,,3x,,2V86[4:1]/8x,,,,
4/2,,,,3,,3,,5,,4,5,4^1[8:1],,6,,
4xpp8[16:7],,,,4x,,,,1,,,,2,,3,,
8/4x^7[6:1],,,,2,,1,,8x^3[6:1],,,,7,,6,,5xh[8:1],,
4,5,3,4,2,3,1x-5[8:1],,,,1w5[8:1]/8x,,,,1x,,,,
2x,2,2,2,2x-6[8:1],,,,2x-4[8:1]*-5[8:1],,,,2x,,,,
7x,7,7,7,7x-4[8:1]*V53[8:1],,,,7x,,,,
7x,2,3,2,8x,3,4,3,
(159)
1x,4,5,4,8x,5,6,5,
(143)
8x,3,4,3,1x,5,6,5,
(132)
8x,8,4,4,2x,2,6,6,8bw4[33#6:1]b,,,,,,,,,,,,,,,,,,,,,,,,,,,,,,,,
(170)
{8}3x/5x,4,5^3[4:1],6,,,,,
3/6,5,4^6[4:1],3,,,,,
3,5,4-2[4:1],6,,,,,
7,4,5-7[4:1],2,,,,,
1/7,8,1^7[4:1],2,,,,,
2/7,1,8^2[4:1],7,,,,,
7,1,8-6[4:1],2,,,,,
3,8,1-3[4:1],6,,,,,
{16}4x/5x-7[8:1],,,,2/5,,3,,
4,8,2,7,1x,,,,3,,5,,4h[8:1],,B6/B7,,
3,,5h[8:1],,B2/E2,,,,1^4[6:1]/6^1[6:1],,,,
1xqq5[16:6]/6x,,,,3x,,3,,2x,,,,
1,,6,5,6,,8,,2,1,2,,
3h[24:1]/7h[24:1],,3h[24:1]/7h[24:1],,
4-2[8:1]/6^4[8:1],,,,4xV68[16:3]/6x,,,,
2v5[6:1],,2,,1x,,,,
6x/7x,,6/7,,5,6,2x,,4,3,8,,2x/6x,,,,
3/7-5[8:1]*-3[8:1],,,,7x,,,,
4^1[6:1],,5,,4x<3[2:1],,,,4,,,,,,,,,,
2,2,4,,3/5,,1^6[6:1]/7,,2,,1,,5-1[6:1],,,,
4x^1[6:1]*v7[6:1],,,,4qq5[16:6],,,,4x,,,,
7-3[6:1],,,,7,,1xh[8:1],,,,
2x/5x,,3,4,3,,6,,1x,,7x^4[16:3],,5x^2[16:3],,3x>7[4:1],,
1x,,,,C,,,,6x-8v5[4:1],,,,3,,,,
2-4[8:1],,,,7,,8x-2[8:1],,,,7x,,,,
6,,3^5[8:1]/5^7[8:1],,,,3x/5xqq1[16:6],,,,
8x,,8,,7h[8:1],,,,
6^3[6:1],,6,,3,,2,,1p4[6:1],,1,,8,,7,,
6-2[6:1],,,,2/6,,,,
{32}1h[8:1]/A3,D4,A4,D5,A5,D6,A6,D7f,
{16}7x/8x,,,,2/5,,3,,6,5,7,,
{24}1^6[6:1],2,3,4,,,1,,,,,,
{16}3x,4,2,5,3,,8,,4/5,,2,,3/4,,,,
2x-5[8:1]/6x-3[8:1],,,,2/6,,,,7x,,3,4,2,,8,,
{24}4x-8[8:1],5,6,7,8,1,2/4,,,,,,
3x-7[8:1],4,5,6,7,8,1/3x,,,,,,
{16}2xv5[8:1],,1,,2/8,,7,7,4x,,3,,2/5^2[8:1],,6,,
5/7-3[8:1],,,,1x^4qq5[16:7],,,,6x,,6,,7x,,7,,
8,,8,,2/7,,3,4,2,,5,,1/6,,7,,
2,8,3,7,4,6,3,5,
{24}2x,1,8,7,6,5,1x,8,7,6,5,4,
{1}2b-7[1:1],
6-3[1:1],
1-4[1:1],
5-8[1:1],
4^1[1:1],
5^8[1:1],
1-5[1:1],
{4}8-4[4:1]b,,1b,
E
