&title=テトリス
&artist=柊マグネタイト
&first=0
&des=Plumbob Park (§§§)
&clock_count=4
&lv_5=13+
&inote_5=(170){1},
5w1[2:1],
{8}6xh[4:3],,B1,B3,B1,B3,2x-5[8:1],,
{8}6xh[4:3],,B1,B3,B1,B3,2x-7[8:1],,
{8}6xh[4:3],,B1,B3,B1,B3,2x<7[8:1],,
{8}6x,,2<7[8:1],,6x,,26,,
{8}3xh[4:3],,B8,B6,B8,B6,7x-4[8:1],,
{8}3xh[4:3],,B8,B6,B8,B6,7x-2[8:1],,
{8}3xh[4:3],,B8,B6,B8,B6,7x>2[8:1],,
{8}3x,4x,7>2[8:1],,3x,4x,37,,
{8}2b/6xh[4:1],,B1,6xh[8:3]/B3,B1,B3,2x-5[8:1],,
{8}6xh[4:1]/2,,B1,6xh[8:3]/B3,B1,B3,2x-7[8:1],,
{8}6xh[4:1]/2,,B1,6xh[8:3]/B3,B1,B3,2x>5[8:1],,
{8}4x,,2>5[8:1],,4x,,26,,
{8}3xh[4:1]/7,,B8,3xh[8:3]/B6,B8,B6,7x-4[8:1],,
{8}3xh[4:1]/7,,B8,3xh[8:3]/B6,B8,B6,7x-2[8:1],,
{8}3xh[4:1]/7,,B8,3xh[8:3]/B6,B8,B6,7x<4[8:1],,
{8}3xpp5[8:1],,7<4[8:1],,3xpp5[8:1],,7x,7x,
{8}7b/8,,5-2[8:1]/6,2>6[16:3],3x,,1x-6[8:1],,
{4}8b>3[8:1],5b-1[8:1],4b<7[8:1],2b,
{8}21,,4-7[8:1]/3,7<3[16:3],6x,,8x-3[8:1],,
{4}1b<6[8:1],4b-8[8:1],5b>2[8:1],7bw3[8:1],
{8}Cf,,6,5h[8:5],4,3,2,1,
{8}8-4[8:1],5-7[12:1],8,5,3-1[12:1],8-4[8:1],3,8,
{8}3b,,1q1[4:1]*p1>2b[16:5],1,1,,,,
{16}3h[8:1]/7h[8:1],,,3h[8:1]/7h[8:1],,,37,,3/7h[8:1],,1,,3h[8:1]/7,,5,,
{16}2h[8:1]/6h[8:1],,,2h[8:1]/6h[8:1],,,26,,2/6h[8:1],,8,,2b/6b,,,,
{2}2<8[12:1]/6>4[12:1],2<1[16:1]/6>5[16:1],
{4}A2/A6,B2/B6,C,8>7[8:3],
{16}4h[4:1]/8b,,,,,,4x,,4,3,2,1,8>7[8:3],7,6,5,
{16}4h[4:1]/8,,,,,,4x,,4,3,2,1,8>7[8:3],7,6,5,
{16}4h[4:1]/8,,,,,,4x,,4w8[8:1],,,,4x,,,,
{16}7bx/E2,D3,E4,C,6bx/E2,D3,E4,C,5bx/E2,D3,E4,C,E2f,,,,
{8}46,35,2/4<3[8:3],35,46,,6x,5x,
{16}4,3,2,1,8<1[8:3],7,6,5,4h[4:1]/8,,,,,,4x,,
{8}4q5[4:1],,5,6x,7x,,18,,
{16}2x/E8,D7,E6,C,3x/E8,D7,E6,C,4x/E8,D7,E6,C,E8f,,,,
{8}2xp6[4:1],,6xp2[4:1],8,2xp6[4:1],,6xp2[4:1],8,
{8}2xp6[4:1],,6xp2[4:1],8,2xp6[4:1],,6xp2[4:1],8,
{8}2xp6[4:1],,6xp2[4:1],8,2x,,6hx[1:1],,
{16}E2,D3,E4,C,E2,D3,E4,C,E2,D3,E4,C,E2f,,,,
{8}53,64,7/5p3[4:1],64,53,,1x,1x,
{16}1,2,3,4,5>6[8:3],6,7,8,1h[4:1]/5,,,,,,1x,,
{8}1p8[4:1],,8,7x,6x,,6xV82[4:1],,
{4}2V46[4:1],6V82[6:1],B4h[4:1],,
{16}8b,7,6,5,8<4[4:1],1,2,3,4>1[16:3],,,,8,,,,
{16}4,3,2,1,4>8[4:1],5,6,7,8<5[16:3],,,,4,,,,
{16}8,7,6,5,4>5[16:7],3,2,1,{384}8,E4,,,
,,,,{24},{16}E3,E2,E1,E8,E7,E6,E5,
{4}4bx-8b[8:1],4bxw8b[8:1],4bx,B2/Cf/B6,
{8}53,64,7/5>6[8:3],64,53,,2x,3x,
{16}4,3,2,1,4>8[4:1],5,6,7,8<5[16:3],,,,4,,4,,
{8}4q5[4:1],,5,6x,7xh[4:1],,8x,,
{16}7x/E2,D3,E4,C,6x/E2,D3,E4,C,5x/E2,D3,E4,C,E2f,,,,
{8}7q3[4:1],5x,3q7[4:1],1x,7q3[4:1],5x,3q7[4:1],1x,
{8}7q3[4:1],5x,3q7[4:1],1x,7q3[4:1],5x,3q7[4:1],1x,
{8}7q3[4:1],5x,3q7[4:1],1x,7,5x,3,3xh[8:7],
{16}E8,D7,E6,C,E8,D7,E6,C,E8,D7,E6,C,E8f,,,,
{8}53,64,7/5p3[4:1],64,53,,1x,1x,
{16}1,2,3,4,1>5[4:1],8,7,6,5<8[16:3],,,,1x,,1x,,
{8}1xp8[4:1],,8,7x,6x,,6xV82[4:1],,
{4}2V46[4:1],6V82[6:1],B4h[4:1],,
{8}1b,3b,1b>8[8:3],4b,1b/3b,,1x,2x,
{16}3,4,5,6,7>6[8:3],8,1,2,{384}3,E8,,,
,,,,{24},{16}E1,E2,E3,E4,E5,E6,E7,
{8}4-8[8:1],3,5>6[8:3],6,1p5[8:1],,,,
{4}B1/B2/B3/B4/B5/B6/B7/B8/C,C,B1/B2/B3/B4/B5/B6/B7/B8/Cf/E1/E2/E3/E4/E5/E6/E7/E8,
