&title=Key Plus Words
&artist=平田志穂子/目黒将司
&first=0.53
&des=Sespori
&lv_5=13+
&inote_5=(174){4},{8},,,,,,2x,
1x>4[8:1],,8<5[4:1],,5>2[4:1],,2qq7[8:5],
,1h[8:5],,,,,,,6,
5,{4}E8,{8}5,4,{4}C,
{8}6,5,,5-8[16:3],,4h[8:1],,,7x,
8x<5[8:1],,1>4[4:1],,4<7[4:1],,7qq2[8:5],
,8h[8:5],,,,,,,3,
4h[8:1],{4}B2,{8}4,5h[8:1],{4}C,
{8}5,6-1[8:1],,6/2,{16},,4,8,3,7,2,6,
{8}1x,8,1,2/7,6,5,6,4/7,
3,4,3,2/5,1x-5[8:1]/6x-8[8:1],8x,,,4,
3,{4}2/5,{8}5,6,{4}7/4,
{8}4,3,2/4,5,4/6,3,{4}2/4-7[8:1],
{8}4x,8,1,2/7,3,4,3,2/5,
6,5,6,7/4,3x-1[8:1]/8x-4[8:1],1x,,,8,
7pp8-5[2:1],,,4xh,4xh,,,3,
3V15[4:1],,6,,7x,{24}7b,6,5,4,3,2,
{4}1,4/6,3,2/4,
6,5/7,2-5[8:1],2/8,
{8}6,5,{16}3x,4,{8}2,7,5,{16}3x,4,{8}2,
8,8,4,5,{16}3,4,2,4,{4}1-5[8:1],
1/8,6x,6,7/5,
3,2/4,7-4[8:1],7/1,
{8}3,4,{16}6x,5,{8}7,2,4,{16}6x,5,{8}7,
1,1,5,4,{16}6,5,7,5,{4}8-4[8:1],
{8}8/1,2-6[8:1],,2/5-8[8:1],,5,,,1/8,
2-6b[8:1],,2/8-4b[8:1],,8/5,,,3,
3>8[4:1],,8<5[4:1],,5>2[4:1],,2<7[4:1]*pp4[4:1],
,,,,{4}3,1/6-8[8:1],
3/6-4[8:1],2/6<4[2:1],{2}6/4,
{4},8-4[8:1],8/2-6[8:1],2,
{8},3,4,1s5b[4:1],,,,7,
{4}8<5[8:1],8>3[8:1],8-4[8:1],8,
{24}2/6V42[4:1],3,4,5,,,{8}7,8h[4:1],{24},,,,,,7/3V57[4:1],6,5,4,,,{8}2,
1h[4:1],{24},,,,,,2/6z2[4:1],3,4,5,,,{8}7,8h[8:3],
{24},,,,,,1,2/7,3/6,4/5,,,{8}7,8/1,2x,4x>6[4:1],
3x,,,5bx,{16},,,,5,4,6,4,
{4}7-3[8:1],7/2-6[8:1],2/1V75[16:3],{8}1/4,3,
2,1,{4}2b/8bV24[16:3],{8}8/7,6-1[8:1],,6/4,
,,{4}3/7-5[8:1],7/8-4[8:1],8/1>7[4:1],
1/3,8,4w8[8:1],4b,
{16}3,4,{8}2,{16}6,5,{8}7,{16}3,4,{8}2,{4}5/1-5[8:1],
1/6x-8b[8:1],6/3x-7b[8:1],3/8w4[8:1],8,
2/6,{8}6,8-4[8:1]/7-1[8:1],,,,,{4}2/6,
1/8,{8}6-1[8:1]/3-8[8:1],5/4,,,{4}2-6[8:1],
2/7-3[8:1],7/8V24[16:3],{8}8/5,6-1[8:1],
,2/6b,,,1/2,3-8[8:1],,3/5,
,,{4}6/2-4[8:1],2/1-5[8:1],1/8-4[8:1],
8/3>6[4:1],3,{2}5w1[8:1],
{8}3-1[8:1],4,6-4[8:1],7,2-4[8:1],1,7-1[8:1],6,
2-4[8:1],3,5-7[8:1],6,1-3[8:1],8,{16}5/1,6,7,8,
{2}5/1b-5[8:1],{4}3-5[8:1]/6-2[8:1],3/6,
{2}1-5[8:1]/4-2[8:1],{4}8b/7b,6,
5-2[8:1],5/3-6[8:1],3/1V75[16:3],{8}1/2,3>6[4:1],
,6/3b,{16},,,,,,3,4,{8}2,1/8,
{4}7-5[8:1],{8}4,2x,{16},,3,4,{8}2,1/8,
{4}7-4[8:1],7/8-3[8:1],{8}8/7,6-2[8:1],,Cf/3bqq1>4[8:13]/6bpp8<5[8:13],
,,,,,,,,,,,,,,,,2,
4,{16}3,5,{8}1,7,5,{16}6,4,{8}8,
3,4,2,8x,{16}4,6,3,5,{4}1,
{8}7,5,{16}6,4,{8}8,2,4,{16}3,5,{8}1,
6,5,7,1x,{16}5,3,6,4,{4}8,
{8}2x,1x>4[4:1],,6,7,8,,8,
2,6,4,5,3,6,{16}4w8[8:1],5,3,6,
E
