&title=The ether
&artist=浜渦 正志
&first=0
&des=这张可能有引导问题
&lv_5=13+
&inote_5=(196){32},,,,,,{64},,,{4},,,3x,3,3,3>1[8:1],3,,6,6,6,6<8[8:1],6,,{8}2,,2,4x,2,,2>4[8:1],,2,,,,7,,7,5,7,,7<5[8:1],,7,,,,
{4}2x-5[4:1],,,2-7[4:1],,,2>5[4:1],,,2<6[16:5],,,2>7[16:6],,,2<3[16:7],,,2>2[2:1],,,5bw1[2:1]b,,,,,{8},5,3-5[8:1],7-4[8:1],3-8[4:1],,,,7b,,7<3[4:1],5,7,,1-4[8:1],,1,,,,2,,2>6[4:1],4,2,,8-5[32:5],,8,,,,7,,7V53[4:1],5,7,,2-8[32:5],,2,,,,2,,2V46[4:1],4,2,,7-1[8:1],,7,,,,
{4}3qq8[2:1]/4pp7[2:1],,,,16,8pp3[2:1]/7,,{8},{12}6,,,{8}8x,7xpp2[2:1],,,,6qq3[1:1],,,,,,,,3pp6[1:1]*qq6[1:1],,,,,,,,,,,,1,8,2,7,3,,
{4}6pp1[2:1]/5qq2[2:1],,,,83,1qq6[2:1]/2,,{8},{12}3,,,{8}1x,2xqq7[2:1],,,,3pp6[1:1],,,,,,,,6qq3[1:1]*pp3[1:1],,,,,,,,,,,,8,1,7,2,6-2[8:1],3,
{8}6bpp2[4:3]*qq2[4:3],,,,,,,,,,3V17[2:1]*V15[2:1],,,,,,,,6,4,7,3,8,2,1>7[32:21],,,,,,,,8,,2>2[2:1],,,,8x,,4x,,6h[2:1],,8,,4-8[8:1]*-2[8:1],,
{8}4bpp8[1:1],,,,,,,,,,,,81,,7,5,6,,18,,45,,,,7,,7<4[16:3],3,7,,1>4[16:3],,18,,,,2,,2>5[16:3],6,2,,8<5[16:3],,81,,,,
{4}2qq7[2:1]/3pp6[2:1],,,,58,7pp2[2:1],,{8},4,,7x,6xqq2[2:1],,,,1,,1>8[2:1],,,,,,1<2[2:1],,2,,,,1V35[3:1],,7,7,,,6,4,7,3,8,,
{4}7pp2[2:1]/6qq3[2:1],,,,41,2qq7[8:5],,{8},5,,2x,3xpp7[2:1],,,,8,,8<1[2:1],,,,,,8>7[2:1],,7,,,,8V64[3:1],,2,2,,,3,5,2,6,1-4[32:5],7,
{8}1b,,,6,4,5,4q5[2:1],,,,8<1[2:1],,,,,,,,3,8,2,7,1,6,{4}8>4[4:1],,,8x<3[16:5],2,1,8>6[16:6],,,8<1[16:7],2,1,8b>8[1:1],,,,,,4<4[1:1],,,,,,8>8[1:1],,,8>8[1:1],,,1x,1x-4[4:1]b,,Cf,,,
{4}1b/8b,,,,,,,,,1-4[4:1]/8-5[4:1],,,1b/8b,,,,E7,C,E3,,,1-4[4:1]/8-5[4:1],,,1b/8b,,,,72,36,45,,,{8}5,4,6,3,7,2,
{8}8b,,,5V37[2:1]/4,,,2,,2,,,,18,,,4V62[2:1]/5,,,7,,7,,7,,
{8}7b-1[8:1],,7-5[8:1],3,7,,2>4[8:1],,2/8<4[4:1],,8,,2-8[8:1],,2-4[8:1],6,2,,7<5[8:1],,7/1>5[4:1],,,,7b-5[8:1],,7-1[8:1],3,7-5[8:1],,7/4>2[8:1],,4<8[4:1],,4,,2-4[8:1],,2-8[8:1],6,2-4[8:1],,2/5<7[8:1],,5>1[4:1],,,,
{8}7b-1[8:1],,7-5[8:1],5-3[8:1],7,,1-3[8:1],,1/5-7[8:1]*-3[8:1],,5,,2x-8[8:1],,2-4[8:1],6,2,,5,4,6,3,7-5[8:1],2,7b-1[8:1],,7-5[8:1],3,7V13[4:1],,3V57[4:1],,7,,2-4[8:1],,2b-8[8:1],,2-4[8:1],6,2V86[4:1],,6V42[4:1],,2,,7,,
{8}7<4[2:1],,,,,{24}2x,1x,8x,{8}7<3[2:1],,,,,{24}2x,1x,8x,{8}7<2[2:1],,,,,{24}2x,1x,8x,7,6,5,4,3,2,1,8,7,6,5,4,3,2,1,8,7,6,
{4}E5,,,E4,E6,,E1,,,B7,B2,,
{8}8x,,8-5[32:5],2,8,,1-4[32:5],,1,,,,1x,,1-4[32:5],7,1,,8-5[32:5],,8-3[32:5],,,,
{8}7<4[4:1],,4,4,3,,2>5[4:1],,5,5,6,,7<4[4:1],,4-8[4:1],4,3,,2>5[4:1],,5-1[4:1],5,6,,7<2[8:3],,7x,2q6[4:1],1,,3x>6[8:3],,3,6q2[4:1],5,,8x<5-3[8:3],,8,2,1,,1bx-5-3[8:3],,1,8,8x<6[4:1]b,8x>5[2:1],,,,,,8x,7,6,{32}2x,3x,4x,,7x,6x,5x,,2x,3x,4x,,,,,,
{8}2b,8,3V51[64:19],7,,,8-6[8:1],,8-4[32:5],,,,7,1,6V48[64:19],2,,,1-3[8:1],,1-5[32:5],,,,2,8,4-2[8:1],6,,,1-7[8:1]*-5[32:5],,1-3[8:1],,,,7,1,5-7[8:1],3,,,8>3[32:5]*<5[32:5],,8b,,,,
{8}4xV61[2:1],7xV51[8:3],,,,,,,2,2,
E
