&title=KILLKISS
&artist=AVE MUJICA
&first=0.12
&des=玉子豆腐(偽)
&lv_5=14
&inote_5=(200)
{8},,,3b/5,5,5,4h[4:1]/6,6,6,35,3,64,4,3,2,1,
{16}7,8,6,1,7,2,8,3,7,1,6,3,5b,,,,,,
{4}2-6[8:1],8-4[8:1],1-5[8:1],7-3[8:1],5<8[8:1],4>1[8:1],
{4},3-1[8:1],7-5[8:1],1-5[8:1],5w1[8:1],,
{8}7,7,2,6,6,2,5,5,2,4,4,2,
{16}1,3,8,4,7,5,6,
{24}7,8,1,2,3,4,5,6,7,8,1,,
{16},,,
{4},,,,,,
{8},47,47,3,
{4}2h[4:1]/6,8-4[8:1],1/8x,
{8}3,4,5,
{4}6,4>5[1:1],
{4}5,5,5,5,5,5,
{8}5,4,45,,5,,6,{8}3,4,5,46,,
{4}7^4[8:1],3,2^5[8:1],5,6^1[8:1],4,3^8[8:1],6,
{16}1,8,2,7,3,6,4,5b/Cf,,,
{4}1>4[6:1],4<7[6:1],7>2[6:1],2-6[6:1],6-1[6:1],1-6[6:1],,
{4}Cfh[1:2],E1,E5,E3,E7,E1,E3,E5,E7,
{8}5/4,4,4,5/4,4,4,5/4,4,4,5/4,5,5,5/4,5,5,5/4,5,5,3/4b,3,3,3/4b,3,3b,5b/4,4,4b,6/5,6b,6,6/5b,6,6/Cf,,
{4},,,,,,,Cf,,,,,,,,
{8}3,3,4,4,3,3-6[8:1],,2,2,3,3,5,5,
{8}2,2,3,3,2,2-5[8:1],,2,1,1,1,4,4,
{8}3,3,2,2,3,3-8[8:1],,3,4,4,4,1,1b,28,2b/8b,
{8}4,2,4b,2,6b,2,6,2,8,2,8,2,6,2,6,2
{16}4,2,4,3,4,2,4,3,,4x/5x,,6,5,7,5,,4x/8x,,7,5,7,6,,7x/5x,,4,6,4,5,4,6,,
{16}4,5,4,5,2,5,4,5,3,5,4,5,1,5,4,5,2,5,4,5,8,5,4,5,2,5,4,5,7,5,4,5,3,5,4,5,6b,
{4},,
{16},,,
{48}1bxv4[8:1]/8bx,2bx/7bx,3bx/6bx,5bx-8[8:1]/4bx,,,
{4},,,
{32},,,,2bx/6bx,3x/7x,4x/8x,5x/1x,,,,,E8/B8/B1/E2/C/E6/B5/B4/E4,,,,,,,,1b/8b,,,,2b/7b,
{4},
{32},,,7bx/3bx,6x/2x,5x/1x,4x/8x,,,,,E8/B7/B6/E6/B4/B5/E4,,,,,,,,4b/5b,,,,3b/6b,,,,
{8},4,3,2,1,
{32}8b,7,6,5,,,,,1b,2,3,4,,,,,1b/8b,27,36,45,,,,,,,,
{48},1bxv4[8:1]/8bx,2bx/7bx,3bx/6bx,5bx-8[8:1]/4bx,,,,,
{4},,
{32},,,2bx/6bx,3x/7x,4x/8x,5x/1x,,,,,E8/B8/B1/E2/C/E6/B5/B4/E4,,,,,,,,1b/8b,,,,2b/7b,
{4},
{32},,,7bx/3bx,6x/2x,5x/1xs5[10:1],4x/8x,,,,,,,,,,,,,4b/5b,,,,3b/6b,,,,
{8},8,7,6,
{32}1,2,3,4,5,,,,
{16}1b/8b,,,,
3,4,3,5,3,6,3,7h[2:1],,8,,1,,2,,3/6,,4/5,,
6,5,6,5,7,4,7,4,1,2,1,2,3/8,7,6,5,4,3,2,1,3/8,4,5,6,7,8,1,2,3/7,
{16}4,5,4,5,4,5,4,5,4,5,4,5,4,5,4,5,
{16}2,3,4,5,8,7,6,5,8,
{16}4,5,4,5,2b,5,4,5,3b,5,4,5,1b,5,4,5,2b,5,4,5,8b,5,4,5,2b,5,4,5,7b,5,4,5,3b,5,4,5,6b,3,2,
{24}1,8,1,8,1,8,1,8,1,8,1,8,1,8,1,8,1bx,,
{16},,,,,,,,,,,,2,6,4,6,4,5,3,4,6,5,8,1,3,5,3,5,4,6,5,3,4,1,8,6,4,6,4,5,3,4,6,5,8,1,3,5,3,5,4,6,5,3,4,1,8,7,5,7,5,6,1,2,4,2,4,3,7,8,5,8,5,7,2,1,4,1,4,2,8,
7,3,5,3,5,4,6,5,3,4,1,8,6,4,6,4,5,3,4,6,5,8,1,3,5,3,5,4,6,5,3,4,1,8,6,4,6,4,5,3,4,6,5,8,1,2,4,2,4,3,8,7,5,7,5,6,2,1,4,1,4,2,7,
{16}1b,4,3,4,2b,6,5,6,1b,4,3,4,2b,5,4,5,1b,6,5,6,8b,4,3,4,1b,5,4,5,{8}8b,
2b/6b,{16}8b,5,6,5,7b,3,4,3,8b,5,6,5,7b,4,5,4,8b,3,4,3,1b,5,6,5,8b,,
{8},18,18,27,36,2-5[8:1],,7-4[8:1],,78,,12,87,27,18,
{48}1/8,,,,1b/8b,2b/7b,3b/6b,4b/5b,
E
