&title=XL TECHNO -More Dance Remix-
&artist=高田聡 from PACA PACA PASSION Special
&first=-0.72
&des=捱思北塔
&lv_5=13+
&des_5=典型的XXXX思维
&inote_5=
(150){4},,,,,,,,,,,,{1}6h[4:7]/4h[4:3],
1s5[2:1],
{8}7b/4b,{16}6,5,{8}6,{16}4,5,{8}4,{16}7,5,{8}7,1,
2/5,{16}3,4,{8}3,{16}5,4,{8}6,{16}2,4,{8}3,8,
7/4,{16}6,6,{8}5,{16}7,7,{8}5,{16}8,8,{8}5,1,
5/2,{16}3,3,{8}4,{16}2,2,{8}4,{16}1,1,{8}4,8,
7/1,{16}6,5,{8}6,{16}2,4,{8}2,{16}7,5,{8}7,1,
2/8,{16}3,4,{8}3,{16}6,5,{8}7,{16}2,4,{8}3,8,
7/1,{16}6,6,{8}4,{16}6,6,{8}8,{16}6,6,{8}3,7,
8/2,{16}3,3,{8}1,{16}3,3,{8}4,{16}3,3,{8}7,2,
8b/1b,{16}7,5h[8:1],,7,{8}4h[8:1],{16}7,3h[8:1],,7,{8}2h[8:1],8,
8/1,{16}2,4h[8:1],,2,{8}5h[8:1],{16}2,6h[8:1],,2,{8}7h[8:1],1,
2/8,{16}7,5h[8:1],,7,{8}4h[8:1],{16}7,3h[8:1],,7,{8}2h[8:1],8,
7/1,{16}2,4h[8:1],,2,{8}5h[8:1],{16}2,6h[8:1],,2,{8}7h[8:1],1,
8/1,{16}6,5h[8:1],,7,{8}4h[8:1],{16}8,3h[8:1],,1,{8}2h[8:1],8,
8/1,{16}3,4h[8:1],,2,{8}5h[8:1],{16}1,6h[8:1],,8,{8}7h[8:1],1,
2/8,{16}6,5h[8:1],,7,{8}4h[8:1],{16}8,3h[8:1],,1,{8}2h[8:1],8,
7/1,{16}3,4h[8:1],,2,{8}5h[8:1],{16}1,6h[8:1],,8,{8}7h[8:1],1,
8/1,{16}7,5h[8:1],,6,{8}4h[8:1],{16}5,3h[8:1],,4,{8}2h[8:1],8,
1/8,{16}2,4h[8:1],,3,{8}5h[8:1],{16}4,6h[8:1],,5,{8}7h[8:1],1,
8/2,{16}7,5h[8:1],,6,{8}4h[8:1],{16}5,3h[8:1],,4,{8}2h[8:1],8,
1/7,{16}2,4h[8:1],,3,{8}5h[8:1],{16}4,6h[8:1],,5,{8}7h[8:1],1,
8/1,{16}7,5h[8:1],,6,{8}4h[8:1],{16}8,3h[8:1],,5,{8}2h[8:1],8,
1/8,{16}2,4h[8:1],,3,{8}5h[8:1],{16}1,6h[8:1],,4,{8}7h[8:1],1,
8/2,{16}7,5h[8:1],,6,{8}4h[8:1],{16}8,3h[8:1],,5,{8}2h[8:1],8,
1/7,{16}2,4h[8:1],,3,{8}5h[8:1],{16}1,6h[8:1],,4,{8}7h[8:1],1,
{4}6/2bqq6[2:1],4,4,{8}4,1b,
{4}3/7bpp3[2:1],5,5,{8}5,4b,
{4}6/2bqq6[2:1],4,4,{8}4,1b,
{1}3/7bpp4[2:1],
{16}3,4,{8}2h[8:1],1,{16}3,3,7,5,{8}6h[8:1],1,{16}6,5,
7,7,3,4,1,8,2,4,{8}3h[8:1],5,1/8,{16}3,4,
2h[16:3],{8},{16}8,{8}1,7h[8:1],{16}5,6h[16:3],{8},1,8/2,
{16}6,5,{8}7,{16}1,4,{8}3,{16}7,7,5,6,1,8,2,4,
3,5,{8}4h[8:1],{16}1,2,{8}8h[8:1],{16}3,4,{8}2h[8:1],{16}1,3,{8}8h[8:1],
{16}4,6,{8}5h[8:1],{16}1,2,,2,{4}6h[4:1],{8}1,8/2,
{16}3,5,4,6,1,8,{8}2h[8:1],{16}6,4h[8:1],,7,1,8,2,7,
{4}3h[4:1],{8}1,{16}2,4,3h[16:3],{8},{16}8,{8}1,7,
{16}3,4,{8}2h[8:1],8,{16}4,6,3,4,{8}2h[8:1],8,{16}3,4,
2,1,4,5,8,7,5,6,{8}4h[8:1],7,8/1,{16}6,5,
7,4,{8}6h[8:1],8,{16}2,5,3,4,{8}2h[8:1],8,{16}3,4,
2,5,1,6,8,7,1,6h[8:1],,3h[16:3],{8},8,1/7,
2/6,3h[8:1],{16}8,5,{8}6h[8:1],{16}3,4,{8}2h[8:1],{16}8,4,{8}6h[8:1],
{16}2,4,{8}3h[8:1],{16}8,1,,1,{4}6h[4:1],{8}8,1/7,
{16}6,4,5,3,8,1,{8}7h[8:1],{16}3,5h[8:1],,2,8,1,7,2,
{4}6h[4:1],{8}8,1/7,{4}2/6-3[8:1],8b,
{16}2b,4,3,5,{8}4h[8:1],{16}5,3,{8}4h[8:1],{16}3,5,{8}4h[8:1],8,
{16}7,5,6,4,{8}5h[8:1],{16}4,6,{8}5h[8:1],{16}6,4,{8}5h[8:1],1,
{16}3,4,{8}2h[8:1],8,{16}6,5,{8}7h[8:1],1,{16}5,3,,3,
6,5,{8}8h[8:1],2,{16}3,4,{8}1h[8:1],7,{16}2,4,{8}3h[8:1],
{16}7,5,6,4,{8}5h[8:1],{16}3,6,{8}5h[8:1],{16}7,4,{8}5h[8:1],1,
{16}2,4,3,5,{8}4h[8:1],{16}6,3,{8}4h[8:1],{16}2,5,{8}4h[8:1],8,
{16}3,4,{8}2h[8:1],{16}1,2h[8:1],,8,{8}2h[8:1],{16}4,2h[8:1],,8,{8}2h[8:1],
{16}6,5,{8}7h[8:1],{16}4,7h[8:1],,5,6,6,3,4,{8}2,1/8,
{16}7,5,6,4,{8}5h[8:1],{16}4,6,{8}5h[8:1],{16}6,4,{8}5h[8:1],1,
{16}2,4,3,5,{8}4h[8:1],{16}5,3,{8}4h[8:1],{16}3,5,{8}4h[8:1],8,
{16}6,5,{8}7h[8:1],1,{16}2,4,{8}3h[8:1],8,{16}5,6,,6,
3,4,{8}1h[8:1],7,{16}6,5,{8}8h[8:1],2,{16}7,5,{8}6h[8:1],
{16}2,4,3,5,{8}4h[8:1],{16}6,2,{8}4h[8:1],{16}2,6,{8}4h[8:1],8,
{16}7,5,6,4,{8}5h[8:1],{16}3,7,{8}5h[8:1],{16}7,3,{8}5h[8:1],1,
{16}6,5,{8}7h[8:1],{16}8,7h[8:1],,1,{8}7h[8:1],{16}5,7h[8:1],,1,{8}7h[8:1],
{16}8,1,2,3,7,8,1,2,6,7,8,1,5,6,7,8,
2b,4,3,5,3,4,2,4,3,5,3,4,{8}1,8/2,
{16}7,5,6,4,6,5,7,5,6,4,6,5,{8}8,1/7,
{16}2,4,3,5,3,4,2,4,3,5,3,4,{8}1,8/2,
{16}7,5,6,4,6,5,{8}7h[8:1],{16}2,4,3,5,3,4,{8}2h[8:1],
{16}7,5,6,3,5,4,6,4,5,2,4,3,{8}8,7/1,
{16}2,4,3,6,4,5,3,5,4,7,5,6,{8}1,2/8,
{16}7,5,6,3,5,4,6,4,5,2,4,3,{8}8,7/1,
{16}2,4,3,5,4,6,{8}2h[8:1],{16}7,5,6,4,5,3,{8}7h[8:1],
{16}4,4,5,2,2,1,3,3,4,1,1,8,{8}2,7/3,
{16}5,5,4,7,7,8,6,6,5,8,8,1,{8}7,2/6,
{16}4,4,5,2,2,1,3,3,4,1,1,8,{8}2,7/3,
{16}4,4,5,2,2,1,{8}3h[8:1],{16}5,5,4,7,7,8,{8}6h[8:1],
{16}2,2,4,3,3,5,4,4,6,5,5,7,1,8,3,3,
7,7,5,6,6,4,5,5,3,4,4,2,8,1,6,6,
2,2,4,3,3,5,4,4,6,5,5,7,1,8,3,3,
7,7,5,6,2,2,4,3,8,8,6,7,1,1,3,2,
{1}4bqq8[8:7]/7b<5[4:1],
7bs3[2:1],
E
