&title=Re_Nascence(Psystyle Ver.)
&artist=Rinth_live
&first=-0.005
&des=Re_NayuWind
&lv_5=13+
&inote_5=(150){4},{1},,,,{16}4h[16:3],
{8},{16}6h[16:3],{8},2h[16:3],{16},5h[16:3],{8},{2}3b>8[4:1],
7<4[4:1],
3qq7[2:1],6h[4:1],
5<8[4:1],1>4[4:1],
5pp1[2:1],2h[2:1],
{4}7qq4[2:1],{2},{4}1,
2qq7[2:1],{2},{4}6,
{2}5<3[2:1],3>5[2:1],
4h[8:3],{8}4,{16}6,6,{8}3,7,
{16}2b>5[4:1],{8},{16}8,{8},7,{16}6<1[4:1],{8},{16}4,{8},3,
{16}2pp6[2:1],{8},{16}8,{8},7,{2}7h[4:1],
{16}8<5[4:1],{8},{16}2,{8},3,{16}4>1[4:1],{8},{16}6,{8},7,
{16}8qq4[2:1],{8},{16}2,{8},3,{8}3h[4:1],,,,
{8}1/8,1,1/2,2,2/3,3,3/4,4,
5/4,5,5/6,6,6/7,7,7/8,8,
{16}1,8,2,8,1,7,1,8,2,8,1,7,3,5,2,6,
{8}1x<2[4:5],{4},{8}C,{4},E5,
,,,5<3[4:1],
{8}5x/3x,,4,,4-1[8:1],5,4,,
{16}7^4[8:1],8,,8,{8}7,1,2,3,{4}4x>6[4:1],
{8}4x/6x,,5,,5-8[8:1],4,5,,
{16}2>5[8:1],1,,1,{8}2,7,6<3[4:1],5,{4}6/3>5[4:1],
4x-8[8:1],4,{8}5x-8[8:1],6,5/4,2x,
{16}3>8[8:1],4,,4,{8}3,5,4-1[8:1],6,{4}4/5<3[4:1],
5x/3x,{8}4,5,4-1[8:1],3,{4}4/5,
{16}6<1[8:1],5,,5,{8}6,4,5w1[8:1],3,{4}5,
8x/2x>5[4:1],5<8[4:1],8^3[4:1],3>5pp4[4:3],
{1}8h[4:3],{16}8x/3x,
2,1,8,5x,6,7,8,2x,3,4,5,1x,8,7,6,
1x,2,3,4,6x,7,8,1,5x,4,3,2,8x,7,6,5,
1x,4,2,5,3x,6,4,7,2x,5,3,6,4x,7,5,8,
2x,3,4,5,8x,7,6,5,2x,4,3,7,5x,6,1,8,
2x,3,4,5,8x,7,6,5,1x,4,3,8,5x,6,2,7,
1x,8,3,7,5x,4,3,2,{24}8x,7,6,4x,3,2,7x,6,5,3x,2,1,
{4}8x/7x<4[4:1],4>1[4:1],1^6[4:1],6<4qq5[4:3],
{1}1h[4:3],{16}1x/6x,
7,8,1,4x,3,2,1,7x,6,5,4,8x,1,2,3,
8x,7,6,5,3x,2,1,8,4x,5,6,7,1x,2,3,4,
8x,5,7,4,6x,3,5,2,7x,4,6,3,5x,2,4,1,
7x,6,5,4,1x,2,3,4,7x,5,6,2,4x,3,8,1,
7x,6,5,4,1x,2,3,4,8x,5,6,1,4x,3,7,2,
8x,1,6,2,4x,5,6,7,{24}1x,2,3,5x,6,7,2x,3,4,6x,7,8,
{1}2x/1x>4qq5^8[4:7],
,1x>4qq5^8b[4:3],
1x>5qq8[2:1]*>8b[2:1],
{4}1/7qq3[2:1],{2},{8}8,1,
{2}2q6[4:1],{4}7<4[4:1],{8}3,2,
{4}1qq4[2:1],{2},{8}6,7,
8V64[4:1],{4},{8}1,{2}2h[4:1],
{4}3qq7[2:1],{2},{8}4,5,
{2}6>3[4:1],{4}1q5[4:1],{8}6,7,
{4}8q1[8:3],{2},{8}5,4,
{2}3-1[8:1]/6-8[8:1],4-1[8:1]/5-8[8:1],
7-5[8:1],{4}8-5[8:1],{8}4,3,
{2}2-4[8:1]/7-5[8:1],1-4[8:1]/8-5[8:1],
{8}2/7-5[8:1],3,{4}4,8-5[8:1],{8}3,2,
{2}8-6[8:1]/1-3[8:1],4-2[8:1]/5-7[8:1],
{8}1/8,1,1/2,2,2/3,3,3/4,4,
5/4,5,5/6,6,6/7,7,7/8,8,
{16}1,8,2,8,1,7,1,8,2,7,1,8,{24}2x,3,4,7x,6,5,
{1}1x<1[4:3],
{8}6,5,7,7,{16}1,8,,8,{8}1x-4[8:1],7,
1x/8b,{16}7,7,2x-5[8:1],8,1,8,{8}2x,{16}8,8,3x-1[8:1],7,4,6,
{8}3x,{16}6,6,2x-4[8:1],7,1,7,{8}2x,{16}8,8,2x-5[8:1],1,3,1,
{8}2x,{16}7,7,1x-4[8:1],6,8,6,{8}1x,{16}6,6,8x-4[8:1],7,1,7,
{8}8x,{16}5,5,3,6,2,7,{16}1xh[8:1],,8,8,{8}1,{16}1,8,
{8}2b/7b,{16}3,3,7x-4[8:1],1,8,1,{8}7x,{16}1,1,6x-8[8:1],2,5,3,
{8}6x,{16}3,3,7x-5[8:1],2,8,2,{8}7x,{16}1,1,7x-4[8:1],8,6,8,
{8}7x,{16}2,2,8x-5[8:1],3,1,2,{8}8x,{16}2,2,1x-6[8:1],2,8,3,
{8}1x,{16}4,4,5x-8[8:1],3,6,2,{8}5x,{16}3,3,{8}8xh[8:1],{16}1,8,
{8}7b/2b,{32}6,7x,{16}8x,2x-4[8:1],1,3,1,{8}2x,{32}5,6x,{16}7x,3x-5[8:1],8,2,8,
{8}3x,{32}8,7x,{16}6x,3x-8[8:1],5,2,5,{8}3x,{32}5,6x,{16}7x,1x-4[8:1],8,2,8,
{8}1x,{32}8,7x,{16}6x,3x-1[8:1],5,4,5,{8}3x,{32}5,6x,{16}7x,2x-5[8:1],8,1,8,
{8}2x,{32}1,8x,{16}7x,4x-8[8:1],6,3,6,{8}4x,{32}5,6x,{16}7x,1,8,2,8,
1b,4,3,4,1b,5,4,5,1b,6,5,6,1b,6,5,7,
1x,7,1x,7,2x,8,2x,8,3x,7,3x,7,4x,6,4x,6,
3b,4,2,8,5b,7,1,6,{24}2,3,4/5,6,7,8,2pp7<8[4:3],3,4,5/6,7,8,
{1}2b/1xh[1:1],
{4}Cf,,,E7,
{2}E6,{4}B4,B7,
{32}E6,B5,B4,E4,{4},,{8},{4}E4,
{2}E1,B5,
{32}E4,B4,B5,E6,{4},,,{8},{1}B5,
{32}B4,E5,{4},,,{16},,,{1}C,
{1},
E
