&title=Vulcanus
&artist=Team Grimoire vs Aoi
&first=0
&des=zppz4
&lv_5=14+
&inote_5=(212)
{1},
{4}5h[1:1]/3,,,,3h[2:1],,1h[2:2],,8<2[8:11],,,,B3,,B5,,
1h[1:1]/7,,,,7h[2:1],,5h[2:2],,4>6[8:11],,,,B7,,B1,,
1>7[1:1]/C,,,,7>5[1:1],,C,,5<8[2:1],,8>3[2:1],,
3,,5h[2:1],,4w8[2:1],,,,5w1[2:1],,,,
1bw5b[4:5]/C,,,,,,,,C,,,,
{8}3/5h[8:1],,5h[8:1],,5h[8:1],2,5h[8:1],3,
5h[8:1],,5h[8:1],,5h[8:1]/3,,6h[8:1]/4,,
4/6h[8:1],,6h[8:1],,6h[8:1],4,6h[8:1],3,
{16}6,7,8,1,4,3,2,1,86,,,,17,,,,
{8}8/2h[8:1],,2h[8:1],,2h[8:1],E8/B7,2h[8:1],E6/B5,
2h[8:1],,2h[8:1],,2h[8:1]/5,,2h[8:1]/6,,
1-5[8:1],1,8,7,6-2[8:1],6,5,4,31,8,27,,
{48}8,,,,8,,,,8,,,,1,,,,1,,,,1,,,,28,,,37,,,46,,,,,,2b/8b,,,,,,,,,,,,
{8}8-4[8:1],3-1[8:1],8,3,5<1[4:1],,1>5[4:1],,5<1[4:1],,1,,
2,,2,,3-5[8:1],5>1[16:5],3,7,
{16}8,7,6,5,8,7,6,5,4/8b,,,7b/3b,,,6b/2b,,
{8}1h[4:1]/5,,6,,7-5[8:1],3-8[8:1],7,3,
4V68[4:1],,8V24[4:1],,4V68[4:1],,8,,
3-5[8:1],3,5,6,7-3[8:1],7,3,2,
{16}1b,5,1,5,2b,6,2,6,3b,7,3,7,4b,8,4,8,
5>2[8:1],,,,1,8,7,6,5h[8:1],,2,6h[8:1],,3,6h[8:1],,
5,7,5,7,4-8[8:1],,3,,24,,1,,7,,6,,
3,4,3,4,2,,6,5,6,5,7-5[8:1],,5-1[16:3],,7,,
4h[2:1],,,,,,,,1,8,7,6,4,3,2,1,
8>3[8:1]/6,,,6,8,,7,,8<5[8:1],,,1,8,,2,,
3,,3,,4/6V48[4:1],,4-2[8:1]/6,,,,,,,,,,
2,1,2,1,3,,6,5,6,5,7,,3,4,3,4,2,,1,,8,,7,,
{12}6h[12:1],4h[12:1],8h[12:1],3h[12:1],5h[12:1],1h[12:1],
{16}8-4[8:1],,,,8b,,3,2,1<6[8:1],,,2,1,,3,,
4-7[8:1],,3,,2,,1,,8>2[8:1],,7,,6,,5,,
3hx[4:1]/4x,5,6,7,8,,4hx[4:1]/5x,6,7,8,1,,5hx[4:1]/6x,7,8,1,
2,3,4,5,3,4,5,6,4,5,6,7,5,6,7,8,
15,,5,,6,,6-1[8:1],,,1,,,2,,3,,3-5[8:1],,,5,,,6,,7,4,7,4,8,3,8,3,
1,,1<6[8:1],,2,,3,,,4,,,5-1[8:1],,6,,7,,,8,,,3,,4,5,3,6,4,5,3,6,
2bh[4:1],,7b-4b[8:1],,,,3b-8b[8:1],,,,6b,,6b-1b[8:1],,,,
,,2b,,2b-5b[8:1],,,,1b,,,8b,,,7b,,
6b/4b,,6b-4b[8:1],,,,6b/3b,,2b-6-2b[4:1],,,,8b,,8b-4-8b[4:1],,
,,1b,,1b>4[8:1]*<6[8:1],,,,1bw5[8:1],,,,1b,,,,
3x/7x,,,,6,5,6,,6,5,6,,6,5,6,,7,8,7,,7,8,7,,1,8,1,,2,1,2,,
2-4[8:1],,,,5,,,,6,5,7,,7,5,7,,7,5,6,,4,5,3,,3,4,2,,2,4,2,,
1-5[8:1],,,,7,,,,6,4,6,,6,5,6,,7,8,7,,7,8,7,,2,1,2,,2,1,2,,
3x-5[8:1],,5,,6,,7x-3[8:1],,3,,2,,1x>4[8:1],,5x,,
6,7,8,1,5,6,7,8,4,5,6,7,8/4w8[8:1],,,,
B4,,,,,,1,8,2b/7b-4[8:1],,,,37,,2-6[8:1],,
,,27,,8-4[8:1],,,,38,,2,,1,,5,,
6,,7,,1-5[8:1]/8,,,,17,,6-2[8:1],,,,64,,
3-8[8:1],,,,35,,7,,1,,2,,3-7[8:1],,4,,5,,,,
6h[16:1]/8,,6h[16:1],,6h[16:1]/4,,6h[16:1],,6h[16:1]/1,,6h[16:1],,
2h[16:1]/4,,2h[16:1],,2h[16:1]/8,,2h[16:1],,
2h[16:1]/5,,2h[16:1],,2h[16:1]/7,,2h[16:1],,
64,,5,,4,,38,,2,,1,,86,,7,,5,6,5,6,5,4,5,4,3,4,3,4,
{32}2,3,4,5,6,7,8,1,
{4}2/Cf,,,,6h[1:2],,,,B5,,,,
4h[1:1],,B6,,
{8}7h[2:1],,,,,,2,8,2h[4:1],,1,8,
{12}E7,B6,B5,E3,B3,B4,
{16}6h[2:1],,,,,,B5,B4,E4,,,,B8,,B2,,
{8}6,6,6/B3,6,2,2,2/B7,2,
{2}8<2[1:1],,2<4[1:1],,4>6[1:1],,6>3[2:1],3>8[2:1],
8<2<6[4:7],,
{12},,,D6,A5,D5,A4,D4,A3,D3,,,
{4}2hx[1:1],,,,7h[8:1],7h[8:1],3h[8:1],3h[8:1],
{8}62,6,15,1,
{16}8,4,8,4,8,4,8,4,8bw4[2:1],,,,,,,,,,,,,,,,
{2}2h[1:3]/6h[1:1],,,E7,B7,,8h[1:2],B3,Chf[1:2],,,,
{4}8bx>8[4:4]*<8[4:4],,,,,,
{16}8,7,6,5,8,1,2,3,4/7b-4[8:1],,6,5,7-3[8:1],,3,3,7,,2,2,4,5,6,7,
8/2>5[8:1],,1,8,2-6[8:1],,6,6,2,,7,7,5,4,3,2,
1/6<1[8:1],,5,4,6,,3,,2-5[8:1],,1,8,2,,7,,
62,,2,3,48,,8,7,6/1w5[8:1],,,,1b,,,,
3x>1[8:1]/7x,,8,8,3,,5,5,8-4[8:1],,6,6,8,,7,7,
2-6[8:1],,,,1-5[8:1]/2,,,,8<5[8:1]*>3[8:1]/1,,,,8,,,,
4,,6,5,7,,3,,
{24}7,6,5,1,2,3,8>6[2:1],7,6,2,3,4,
{16}8b,,,,,,,,8,1,2,3,5,6,7,8,
2-6[8:1],,1-5[8:1],8,2,,1,,3v8[8:1],,4-7[8:1],6,3,,4,,
1,2,3,4,6,7,8,1,5,4,3,2,8>2[8:1],7,6,5,
8b/4<7[8:1],,5,3,4,,3,,2-5[8:1],,1-6[8:1],,2,,1,,
{12}4,4,8,3,3,7,2,2,6,1,1,5,
{16}8-4[8:1],,,6,8,,5,,3-8[8:1],,2/4-7[8:1],,3,,4,,
1,2,3,4,1,8,7,6,4-7[8:1],3,2,1,4b/8V64[4:3],,,,
1,,1,,1,,1,,1,,1,,1,,1,,
1,5,1,5,1,6,1,6,1,7,1,7,1,8,1s5[8:19],8,
{1}1bz5b[8:18],,,
{16}3<8[2:1]/4h[4:3],,,,,,,,,,,,,,,,
{32}15,26,37,48,1h[8:7]/5,6,7,8,,2,3,4,5,6,7,8,,
2,3,4,5,6,7,8,,2,3,4,5,6,7,8,,2,3,4,5,,,,7,,,,
{8}3,3,2-6[8:1]/6-8[8:1],2/6,E8f/D8/A8,
,8x-4[8:1]/4x-2[8:1],8x/4x,A2/E3f/D3,
,6x-2[8:1]/2x-6[8:1],2x/6x,Cf,
,1x-5[8:1],5xV37[4:1],A1f,,6x,6hx[4:1],,
8>3[4:1],,3<6[4:1],,6,,7,,8-5[4:1],,5V73[8:3],,
4,3,2,1,,24,2/4,,
{16}5,3,6h[8:3],,4,,4h[8:1],,,,35,,35,,2,,1-5[8:1],8,2,7,1b,,,,
4,6,4,6,3,5,3,5,2,8,2,8,1,7,1,7,3,5,2,8,4,6,3,5,
{24}1,,,8,7,8,7,,,16,,,
{16}3,4,2,5,3,4,2,5,8,7,1,6,8,7,1,6,2,8,4,7,1,5,2,8,
{24}3,,,5,4,6,5,,,73,,,
{16}7hx[4:1]/3hx[4:1],,,,,,,,
25,,3,4,3,,15,,4,,6,5,7,,48,,3,,2,1,2,,35,,
1,7,1,7,2,8,2,8,4,6,4,6,3,5,3,5,
3b,4b,2b,7b,8b,6b,2b,1b,3b,6b,5b,7b,1b,8b,2b,6b,
{4}4b/Cf,,,,,,,,,,,
{16}8,7,6,5,4/8bpp4[4:1],,8b,,,,
{32}A5f,D6,A6,D7,A7,,,,,,,,
{16}1bqq6[4:1]/5,,1b/5,,,,
{32}A4f,D4,A3,D3,A2,,,,,,,,
{16}8b>4[4:1]/4,,8b/4,,,,
{32}A5f,D6,A6,D7,A7,,,,,,,,
{12}3,4,2,7,8,6,
{16}1-5[4:14],5,1,5,1,5,1,5,2,4,2,4,2,4,2,4,
3,5,3,5,3,5,3,5,4,6,4,6,4,6,4,6,
3,7,3,7,2,8,2,8,
1,8,2,7,1,8,2,7,
1bw5[2:1],
