&title=英雄
&artist=d.o.a
&first=-0.06
&des=SHINIEST
&lv_5=13+
&inote_5=(192){4},,,,,,,,,,,,,,,,6h[8:1]/3h[8:1],
4/5h[8:1],{8}4,6,{4}6-1[4:1],
{8},,3,4,3,4,6,5,
{4}6h[4:1],3,{8}6,3,{4}3-8[4:1],
{8},,6,4,5,3,6,4,
7,3,7,2,8,3,{4}3v1[4:1],
{8},,5,6,4,3,6,7,
3,2,7,8,1,2,{4}8v6[4:1],
{8},,1,2,8,7,3,6,
{16}4,5,{8}4,{4}6,6/3,{8}6,4,
{4}6,6/3,{8}6,4,6,3,
{4}6,6/2,2-8[8:1]/6-4[8:1],2-4[8:1]/6-8[8:1],
{8},,6,5,3,4,6,5,
3,4,{4}3,3/6,{8}3,5,
{4}3,3/6,{8}3,5,3,6,
{4}3,3/7,7>1[8:1]/3>1[8:1],7<5[8:1]/3<5[8:1],
{8},,4,3,5,6,3,4,
6,5,4,3,{4}3,2/7<4[4:1],
{8}3,3,{4}2,7/2>5[4:1],{8}6,6,
{4}7,8/2,7V15[4:1]/3V15[4:1],7/3,
{8},,4,2,5,7,3,1,
6,8,2,7,{4}8/1,{8}3,8,
2,7,3,7,2,6,1,6,
{4}5/2,5/3,4V25[4:1]/6V85[4:1],6/4,
{8},,4/6,5,3,6,3,6,
{4}1/8,{8}7/2,6,5,3,4,6,
7,3,{4}4/6<2[4:1],2v4[4:1],4,
3h[4:1],6h[4:1],3,{8}5,3,
4,6,{4}2/7>3[4:1],3v5[4:1],5,
4h[4:1],6h[4:1],3,{8}2/7,2,
7/2,6,{4}6/3,{2}3-5[8:1]/6-8[8:1],
{4}1h[4:1],5h[4:1],4>5[1:1],4,
,6-3[4:1],{16},,,,,,2,1,
8,7,6,5,{4}4-7[8:1]*-1[8:1],{8},,,8/1,
2,7,6/3,3,{4}5/4-2[8:1],5-7[8:1],
4V28[4:1],6,7-4[8:1],7/1-4[8:1],
1/8-5[8:1],8/2-5[8:1],2b,{8}7,7h[8:1],
3,4,5/6,6,3/4,3,5/2h[4:3],5,
6,7,8,8,7-5[8:1],7,2-4[8:1],2,
8-4[8:1],8,{4}1,5/1<7[8:1],5/1>3[8:1],
5/1-6[8:1],5/1-4[8:1],1b/5,3/5,
{8}2/5,2,6,6,3,3,5/6,7,
4/3,2,8,1,{2}1-6[8:1]/8-5[8:1],
1-4[8:1]/8-3[8:1],{4}8<5[8:1],8>3[8:1],
8-4[8:1],8w4[8:1],{8},,,,7,
4,3,8,7V51[4:1],4-2[8:1],,,,4,
5,5,2V48[4:1],5-7[8:1],,,,,{4}4-1[8:1],
4-6[8:1],4V28[16:3],
7>6[1:1],7h[1:1],{16},,,,,,,,,,,,,8,
1,2,{2}3h[4:1],
1>5[2:1],6<2[2:1],
3<7[2:1],8q2[2:1],
3<7[2:1],8>4[2:1],
{1}5<1[2:1],
{2}4V28[2:1],8V64[2:1],
4V28[2:1],8V64[2:1],
{1}7pp4[2:1],
{8}1/5,2,3,4,{2}5h[4:1]/6h[4:1],
5V71[2:1],1<5[2:1],
4V28[2:1],8>4[2:1],
6qq1[2:1],1qq3[2:1],
{4},,4/8h[8:1],3/8h[8:1],
2/8h[8:1],{8}1/8<2[4:3],1/8q2[8:5],,,,,,,,,{4}7-5[8:1],
2-4[8:1],
8-6[8:1],1-3[8:1],8,1/8h[8:1],
1/7h[8:1],1/6h[8:1],5h[8:1]/1-5[8:1],1-7[8:1],
1-3[8:1],1p5[8:1]*q5[8:1],{2}1b,
{4},1V37[4:3],{2}6h[1:1],
{4},,7-5[2:1],3h[4:3],
,,5<3[1:1],4h[4:5],
,,,,3-7[4:3],
6h[1:1],,,,7v5[2:1],
,3v1[2:1],
,,,1q8[2:1],
,8bs4[2:1],{2}5b,
{16}5,6,7,8,1,2,3,4,{4}5-8[8:1]*-2[8:1],5b,
1-3[8:1],8-6[8:1],1-5[8:1],8-4[8:1],
{2}4<7[8:1],{4}1-3[8:1]/8-3[8:1],8-6[8:1]/1-6[8:1],
8/1>5[4:1],5V31[4:1],{2}7h[4:1],
{4}1/8,{16}1/2,8,7,6,{8}5/2V48[4:1],5v7[8:1],{16},,,,,,,,8/7,
1,2,3,{8}4/7V51[4:1],4v2[8:1],,,,6,
5,4,{4}5-8[8:1],5-3[8:1],
{8}5<3[8:3],,,3<5[8:1],,,2h[4:1],{16}6,7,
8,1,2,3,4,5,6,7,{8}8/2,3,4/8h[2:1],5,
4,3,2-4[8:1],3,6-8[8:1],7,{4}2V41[4:1]*V48[4:1],
{24},,,,,,,,,,,,8/1,7,{12}6,{24},,1/8,2,{6}3,
{24}8/2,7,{12}6,{24},,1/7,2,3,4>8[8:1],,,{2}5h[4:1],
{8}2-5[8:1],3,8-6[8:1],7,{4}3V51[4:1],3/5h[2:1],
{8},8V24[4:1],,6,7,8,{4}5V31[4:1]/1V75[4:1],
{2}1/5,{24}8/4,1,{12}2,{24},,8/4,7,{6}6,
{24}8/4,1,{12}2,{24},,8/4,7,6,5<1[8:1],,,{2}4h[4:1],
{8}2-8[8:1],3,6-4[8:1],7,1V73[4:1],2,{16},,,,4,
5,6,7,{4}8/1,1b-3[8:1]/8b-6[8:1],8b-4[8:1]/1b-5[8:1],
8b<5[8:1]/1b>4[8:1],1b/8bq1[4:1],8/1,3-6[8:1],
3/7-2[8:1],7/4V68[4:1]*V28[4:1],{8},,,,3/5,
2/6,{4}7h[8:1]/1h[8:1],{8}3V15[4:1],8v5[8:1],{4}3,
{8},3/7,{4}8h[8:1]/2h[8:1],{8}6V84[4:1],1v4[8:1],{4}6,
{8},5,4,3,{4}4,4-2[8:1]*-6[8:1],
{1}4>5[4:3]*V68[4:1],
{16},,2,3,4,7,6,5,{8}4p1[4:1],6,{4}4,
{8},7-3[8:1],7b,2-5[8:1],2,4<8[4:1],,8v6[4:1],
,,,,4p1[4:1],5,{4}4,
{8},8-4[8:1],8b,3-6[8:1],3,5V71[4:1],,1v7[4:1],
,,,,4/8V64[4:1],3,{4}8/2-6[8:1],
{8},5,5,6,7/4,8,7/2,6,
{4}5/1>3[8:1],{16}5,6,{8}7,8/4,8/4,7/3,7/3,
6/2,2/6,1v3[8:1]/5v7[8:1],5/1,
E
