&title=Goldrop
&artist=FELT
&first=0.91
&des=Fortunes Gate
&lv_5=13
&inote_5=(146)
{4}6^5s1^8z4^3[4:13],,,,,,,,
{8},,,,,,,,,,,,,,8b,,
{8}3,3,3,3,4,4,4,4,
{8}5,5,5,5,4/6,4/6,4/6,4/6,||{8}5,5,5,5,6,6,6,6,||
{8}7x/5x,6,5,6x/4x,5,4,3,4x/2x>8[4:1],
{8},3x,,1pp1[16:3]*pp1[16:3],,,,,
{4}6x/3x-5[8:1],6,6,6/2-4[8:1],||{4}6x/3x-5[8:1],6,6,6/3-5[8:1],||
{4}6,6,6/5,6/4,
{4}3/6-4[8:1],3,3,3/7-5[8:1],||{4}3/6-4[8:1],3,3,3/6-4[8:1],||
{4}3,3,3/4,3/5,
{4}3bqq5[8:7]/6,6,6,6,
{4}6,6,6,6,
{4}6/5p2[8:7],6,6,6,
{4}6,6,2x-7[8:1]/6x-1[8:1],,
{4}8/1bx>5[4:1],8,8,8/2x>6[4:1],
{4}8,8,{16}8/E6,E5,E4,E3,{4}E2/8,
{4}1/8x<4[4:1],1,1,1/7x<3[4:1],
{4}1,1,{16}1/E4,E5,E6,E7,{4}E8/1,
{4}8/1bx-5-3[16:7],8,8,{8}8,2-6[8:1],
{4}8,8,{16}8/E6,E5,E4,E3,{4}E2/8,
{4}1/7bx-3-5[16:7],1,1,{8}1,B7/E8/A7,
{8}1,B4/E5,1,B6,{16}1x,2x,3x,4x,{8}7bx^4b[8:1],,
{8}7/3bh[8:2],,,2bh[4:1]/1h[4:1],,,8,5h[8:2]/7bh[8:2],,
{8},3,2bh[8:2]/4h[8:2],,,A6/B6/E7,A3/B3/E4,
{8}5h[8:2]/7bh[8:2],,,1bh[8:2]/7h[8:2],,,2,3bh[8:2]/1h[8:2],
{8},,4,3h[8:2]/5bh[8:2],,,A2/A6/B6/E6/E3/B2,,
{8}3/7,7<4[8:1],8,7/1h[4:1],,8<5[8:1],1,8bx/2h[4:1],,
{8}1<6[8:1]*>4[8:1],8/2,1bx,,3/7,3/7^4[8:1],,
{8}7bx,2q6[8:1],1,2bx,7^2[8:1],8,7xqq8[2:1],3bxqq4b[8:3],
{8},,,,,,A3/B3/Cf/B7/A7,,
{16}1b,,6,5,
,3,4,,
2-6[8:1]/5,,,,
1/2,,8,,
{16}5x/7,,3,4,
,1,8,,
2/7^4[8:1],,,,
7/8,,1,,
{8}2x-5[8:1],6,2,7,4-1[8:1],8,4,7,
{8}8x-3[8:1],6,
8,7,
6v8[8:1]/2xv4[8:1],,2/6,,
{8}3x/7x,1,8,3/7x^4[8:1],
,7/2,1,8x^5[8:1],
{8},8/3,2,1x^6[8:1],
,1/4,3,2,
{8}1b/5b,6,
4,3x/7x,
2,4,
1/5,2b-5[8:1]/6b-1[8:1],
{16},,2bqq7[16:7]/6bqq3[16:7],,
,,E1f/B8/B1/B5/B4/E5,,
,,,,
,,,,
{16}8bx,,3,4,
,6,5,,
7-3[8:1]/4,,,,
8/7,,1,,
{16}4x/2,,6,5,
,8,1,,
7/2^5[8:1],,,,
2/1,,8,,
{8}7bx-3b[8:1],5,7,2,
4-8b[8:1],1,3,2,
{8}1x-5b[8:1],3,1,2,
1^4[8:1]/4x^7[8:1],,1/4-1[8:1],,
{8}4bx^7[8:1]/8bx,,8-5[8:1],,
8x^3[8:1]/4x,,4-1[8:1],,
{8}4x^7[8:1]/8x,,4,,
{16}8x/4x,,7,1,
{4}6x-1[8:1]/2x-5[8:1],
{8}2bx/6bx,,4/8,3/7,2/6,1,8,7bx-4[8:1]/3bx-8[8:1],
{8},7bxpp2b[16:7]/3bxpp6b[16:7],,E1f/B8/B1/B5/B4/E5,,,,,
{8}7h[8:3],,8,8-5[8:1],,4-1[8:1],,2>7b[4:1],{8},8,,8h[4:1],,E1,C,E5,{8}3h[8:3],,4,4-1[8:1],,8-5[8:1],,6b<3b[8:7],{8},,,,,,,,{2}Cf,,{2},,{2},,{4},,,1-6[8:1],{8}1/5h[8:1],,5,5,5,5,5,5,{8}4/6,4/6,4/6,4/6,7/3,7/3,7/3,7/3,{8}8b/2b,3,
5,6b/4b,
7,1,
8/2,7b-4[8:1]/3b-8[8:1],{8},7b/3b>5[4:1],,1xbh[4:1],
,,A3/B3/Cf/B7/A7/E4/E3/E8/E7,,{16}1bx,,7,5,
6,3,4,,
2-6[8:1]/5,,1,,
8/2,,7,,{16}5x/7,,3,4,
1,8,2,,
3/7^4[8:1],,8,,
7/1,,2,,{8}3bx-8b[8:1],4,3/5,6,
1-5b[8:1],8,1/7,6,{8}3x-6b[8:1],5,6/3,7,
8^5[8:1]/5^2[8:1],,8/5-8[8:1],,{8}1bx^6[8:1]/5bx^2[8:1],,1-4[8:1],,
1bx^6[8:1]/5bx^2[8:1],,5-8[8:1],,{8}1bx^6[8:1]/5bx^2[8:1],,1/5,,
{16}1bx/5bx,,2,8,
{4}3bx-8[8:1]/7bx-4[8:1],{8}3b/7b,,1/5,6/2,7/3,8/4,1/5,6bx-3[8:1]/2bx-7[8:1],{8},2bqq3[16:6]`6bqq7b[16:6],,B5/B4/E5`E1f`B8`B1,
,,,,{16}7x-3[8:1],,8,,
1/7,,2,2,
4,,3,,
6/4,,7,,{16}8x-4[8:1],,1,,
2/8,,3,3,
5,,4,,
6/3,,7,,{16}2x-6[8:1],,1,,
8/2,,7,7,
5,,6,,
3/5,,2,,{16}1x-5[8:1],,8,,
7/1,,6,6,
4w8[8:1],,3bx/5bx,,
,,,,{16}7x-3[8:1],,8,,
1/7,,2,2,
4x^1[8:1],3,5,,
6/4,,7bx,,{16}8x-4[8:1],,1,,
2/8,,3,3,
5x^2[8:1],4,6bx,,
7/5,,8,,{8}1-6[8:1],7,1b^4[8:1],5,
1b-6b[8:1],6^1b[8:1],1b^4b[32:3],5bxw1[8:1],{8},,,7bh[4:1]/3bh[4:1],
,,{32}3x/7x,6x-1[8:1]/2x-5[8:1],1x/5x,,{8},{1}2bx/6bx^5s1^8z4^3[4:14],,,,{8}D3,B3,B5,D6,
,,,,{8}A3,E4,E5,A5,
,,,,{8}D3,B3,B5,D6,
,,,,{8}A3,E4,E5,A5,
E6,E7,{16}1pp1[1:4]*pp1[1:4],{1},,,,,E
