&title=月映天蓋
&artist=東京アクティブNEETs
&first=0.114
&des=folern
&lv_5=13+
&inote_5=(153)
{4},,{16}7,,3,4,3,,7,,
(144)
{16}
6x/5xh[16:3],,,6,5,,7,,6,5h[8:1],,7,5,,6,,
5,7h[8:1],,5,6,,E5,,5,7h[8:1],,5,6,,E5,,
3x/4xh[16:3],,,3,4,,2,,3,4h[8:1],,2,4,,3,,
{4}6-4[8:1]/2-5[8:1],,{8}34,2,81,7b,
{16}6h[16:3]/5,,,2,4,,1,,6/2h[16:3],,,4,3,,6,,
{8}3-5[8:1]/7,5,6-8[8:1],7,{16}2h[16:3],,,1x,2,,4x,,
{16}3h[16:3]/5,,,7,5,,8,,3/7h[16:3],,,5,6,,1,,
{8}82,3h[8:1],{24}4-1[8:1],3,5,{8}4,{16}7h[16:3],,,8x,{8}7,2b,
{16}1/5h[16:3],,,3,4,,2,,8/4h[16:3],,,6,5,,7,,
{16}2/6h[16:3],,,4,{24}6-8[8:1],5,6,{8}4,2h[16:3],{16},1x,{8}2,7x,
{16}4/6V47[8:2],,,3,{8}3,2,1-5[8:1],8,1/7-3[8:1],,
{4}4b>5b[8:3]*pp5[8:3],,,{32}D5,D4,D3,D2,D1,D8,D7,D6,
{4}D5/Cf,,{8}E5,E1,{16}E3,E7,,1b/8bp3[16:3],
{8},3<8[4:1],2,1,2h[4:1],,1,37,
{8}56,1,{24}3p6[16:3],4,3,{16}5,5h[16:5],{4},{8},45,
{8}37,8,{16}6<3[4:1]/5,6,,4h[16:5],{4},{8},54,
{8}26,{16}6,5-1[8:1],,43,,7h[16:4],,,,3,7-3b[8:1],,15,,
{8},E1f/B1/B8,{16}A6/B6,A3/B3f,,5xbp4b[16:5]/1xbh[16:5],{4},{8},2,
{64},,,,,1x>4[64:9],,,,,,3x<6[64:9],,,,,,5x<8[64:9],,,,,,7x,,,,,,Cf,,,{4},{8}8x/1x,,
{16}2x,4,3,7x,5,6,1x,3,2,8x,6,7,1xw5b[48:5],5,,1xb/2xbqq7[16:11],
{1},
{4}4x/5b<4[8:5],4,5,5-1[8:1],
{8}6,6h[8:1],2,2h[8:1],{16}4,3,5,4,6-4[8:1],,7x,5,
,3x,3,,{8}1xh[8:1],5,{16}2,4,3,,7h[8:1],,5,6,
3h[8:1],,4,3,5h[8:1],,4,5,{8}3-5[8:1],,6-3[8:1],7x,
3,2h[8:1],{16}4,3,6h[8:1],,{8}5,{16}3,4,,7,5,,
{8}8x-4[8:1],4,3x>5[8:3],{16}2,2xh[16:5],{8},,,{16}3,3,
{8}4-1[8:1],,2-6[8:1],2,8-5[8:1],8,4,{16}3,3,
{8}7h[8:1],{16}5,6,2,4,{8}3,4x/2x,6,7x/5x,{16}6,6,
{16}2b-4b[8:1],8,,1x-5[8:1],2,,1x,,3,3,4x,2xh[8:1],,4,3x,6,
{8}5-2b[8:1],4,8-4[48:5],{16}7,7,8x,,,6,5,6,2,2,
{16}7-4b[8:1],1,,8x-3[48:5],7,,8x,,5-1[8:1],,6,,4-7b[8:1],,2,2,
{16}4x,,3,3,1-5[8:1],2,8,,{8}7x-5-8-4-1-3b[8:5],7x,{4}A5/E5f/A4/B5/B4,
{4},,{16}2x,4,3,6,2-4[8:1],,1,5-1[8:1],,6,6,,7,7-3[8:1],,8,{8}2x-4-1-5-8-6b[8:5],2x,{4}A5/E5f/A4/B5/B4,
{4},,{8}7x/5x,3h[8:1],{24}E7,E6,E5,{8}C,
{16}2x,2,1,3,7,5,,45,,24,,36,,{48}1x-5b[12:1]/8x-4b[12:1],D2/D8,D3/D7,D4/D6,,,,,,
{4}1xb>8[16:9]/8xb`E1f,,,{24},,,,,6b/2b,
{8},4h[8:1],{16}5,4,{24},,2h[24:13],{8},E1,C,E5,
{8}6,6h[8:7],E2,C,E6,E5,C,B3,
{8}4,4h[8:7],E6,C,E2,E1,C,B7,
{8}8,8h[8:3],E5,C,E1/D1,E7/D7,E3/D3,E5/D5,
{16}3,4,,6xh[16:3]/4,,,5,6,,6/8xh[16:3],,,7,8,,8/2xh[16:3],
,,1,2,,2/4xh[16:3],,,3,4,,6x-8[8:1]*-4[8:1]/5,,7/6x,,,
{8},2x,{16}E3,E4,E5,,7x,8,7x,,E7,E6,E5,,
{16}1,8,2,7,E4,E6,,C/E3/E7,,,4x/5x,,6<3[4:1]/3,6x/3x,,Cf,
{16}
,,,,4xh[8:1],,5,4,,37,,6,5,7,1,8,
2,6,3,6,4,6,5,6,7,6,8,6,2,6,3,5x,
4,8,,12,,23,,24,,45,,56,,57,,78,,81,,82,,32,,34,,35,,65,,67,,5x/8x,
8-5[8:1],,,,4-8[8:1],4,,3,,2-5[8:1],,,6-2[8:1],,7,,
8-4[8:1],,8,,5-2[8:1]*-8[8:1],5,,,,,,,7,3,5,1,
{16}7,5,6,2,4,3,8,6,7,1,3,2,8w4[48:5],4,,8xb/7xb,
{4},,{8},{32},E6,B5,B4,{4}E4,
{16}
3xb/4xh[16:3],,,3,4,,2,,6,6h[8:1],,5,6,,2,,
3,4,,4,2,,E5,,3,4,,4,2,,E5,,
6xb/5xh[16:3],,,7,5,,6,,2,2h[8:1],,8,1,,8,,
{4}3-5[8:1]/7-4[8:1],,{8}65,7,18,{16}3,3,
{8}
4b-6[8:1],{16},2,{8}2,3,4>1[8:1]/8,{16},7,{8}7,5,
6-4[8:1]/2,4,3-1[8:1],2,{16}7h[16:3],,,8x,{8}7,4x,
6/5-3[8:1],{16},7,{8}7,6,5<8[8:1]/1,{16},2,{8}2,4,
15,7h[8:1],{24}5-8[8:1],6,4,{8}5,{16}3h[16:3],,,1x,{8}2,7x,
6b/8-4[8:1],{16},5,{8}5,7,1-5[8:1]/3,{16},4,{8}4,2,
{16}7/3h[16:3],,,5,{24}3-1[8:1],4,3,{8}5,7h[16:3],{16},8x,{8}7,4x,
{16}5/3V52[8:2],,,6,{8}6,7,8-4[8:1],1,8/2-6[8:1],,
{4}5b<4b[8:3]*qq4[8:3],,,{32}D5,D6,D7,D8,D1,D2,D3,D4,
{4}D5/Cf,,{8}24,57,{16}36,3x/6x,,1b/8bp3[16:3],
{8},3<8[4:1],2-6b[8:1],1,2x,,{8}8<5[8:1],7,
8/4pp5[16:3],2,3>6b[16:4],{16}2,2xh[16:4],{4},{8}4-1[8:1],35,
7V58[4:1],6,{16}8V26[4:1],8,,2xh[16:5],{4},{24},D3,D4,{8}D5/D1,
{16}3x/7x,,5,4x-8[8:1]/6x-4[8:1],,12,,4b/6b,{8},{16},1,7x-3b[8:1],,26,,
3bV58[32:7],,,,1<3b[32:11],1,,2xh[16:5],{4},{8},1,
2q7[16:3],8,{16}6<3[32:9],6,,5x,,,,,4,,5,,
2V41-7[16:5]/6,,,8,,,6,,5pp4[8:3],,5,,{16}4,4,,3p6[32:7]*>6b[32:7],
{4},,{8}75,42,{16}63,6x/3x,,8b/1bq6[16:3],
{8},6>1[4:1],7-3b[8:1],8,7x,,{8}1>4[8:1],2,
1/5qq4[16:3],7,6<3b[16:4],{16}7,7xh[16:4],{4},{8}5-8[8:1],64,
2V41[4:1],3,{16}1V73[4:1],1,,7xh[16:5],{4},{24},D7,D6,{8}D5/D1,
{16}6x/2x,,4,5x-1[8:1]/3x-5[8:1],,78,,5b/3b,{8},{16},8,2x-6b[8:1],,37,,
{8},A8/E1f/A1/B8/B1,{16}E4/A3/B3,B6f/A6/E6,,4xbq5b[16:5]/8xbh[16:5],{4},{8},7,
{64},,,,,8<5[64:9],,,,,,6>3[64:9],,,,,,4>1[64:9],,,,,,2,,,,,,Cf,,,{4},{8}1x/8x,,
{16}2b,4,3,7b,5,6,1b,3,2,8b,6,7,1bw5b[48:5],1xh[8:1]/5xh[8:1],,{48},B1,Cf,B5/B4/B6,
