&title=ユメミ
&artist=r-906 / LeuR
&first=1.879
&des=庄周
&lv_5=别玩
&lv_7=别玩
&inote_5=(132)
{16}
4,,,,4,,,,4,,,,4,,,,
{16}
4,,,,4,,,,4,,,,4,,,,
{24}
5/6,,,,,,2,,,,,3,4,,,2,,,1/8,,,,,,
{24}
5/6,,,,,,2,,,,,3,4,,,2,,8,1,,,,,,
{24}
3/4,,,,,,7,,,,,6,5,,,7,,,8/1,,,,,,
{24}
4/3,,,,,,7,,,,,6,5,,,7,,1,8`4?>5[4:3],,,,,,
{16}
,,,,,,,,,,,,,,,,
{32}
E4,E5,E6,,{16},,,,,,,,,,,,,,
{16}
4x-2[8:1],,,,5,,,,4x-2[8:1],,,,5,,,,
{16}
8x-4[8:1],,1x-3[8:1],,8,,1,,,,6,,7,,8,,
{16}
4>5[2:1],,,,8x,,,,,,,,,,,,
{16}
6>3[8:1],,3,,6,,,,3<6[8:1],,6,,3,,,,
{16}
8h[4:1],,,,1-3[8:1],,1-7[8:1],,1-5[8:1],,,,,,6h[8:3],,
{16}
,,5-2>4[4:1],,5-8[8:1],,,,,,,,4/6,,,,
{16}
6pp5[8:3],,,,2,,1pp5[8:3],,,,,,6,,7h[8:7],,
{16}
,,E5,,E4,,E3,,E2,,E1,,E8,,,,
{16}
7x-5[8:1]/8x-5[8:1],,,,7/8,,,,7x-5[8:1]/8x-5[8:1],,,,7/8,,,,
{16}
3x-1[8:1],,4x-8-6[16:3],,3,,4,,,,2,,3,,4,,
{16}
5<4[2:1],,,,1x,,,,,,,,,,,,
{16}
3<6[8:1],,6,,3,,,,7>2[8:1],,2,,7,,,,
{16}
4h[4:1],,,,5-7[8:1],,5-3[8:1],,5-1[8:1],,,,,,2h[8:3],,
{16}
,,8V64[4:1],,8-2[8:1],,,,,,,,3>6[4:1]*p6[4:1],,,,
{16}
,,,,,,,,5-2[8:1],,3,,7h[4:1],,,,
{16}
1-6[8:1],,7,,3h[4:1],,,,5,,4,,6h[4:1],,,,
{16}
1-3[8:1],,,,5-7[8:1],,,,2-4[8:1],,,,6-8[8:1],,,,
{16}
3-5[8:1],,,,7-1[8:1],,,,4-6[8:1],,,,8<5[8:1],,,,
{16}
3-1[8:1],,,,7-5[8:1],,,,2-8[8:1],,,,6-4[8:1],,,,
{16}
1-7[8:1],,,,5-3[8:1],,,,8>4[4:1],,,,6,,7,,
{16}
8-6[8:1],,,,4-2[8:1],,,,7-5[8:1],,,,3-1[8:1],,,,
{16}
6-4[8:1],,,,2-8[8:1],,,,5-3[8:1],,,,1>4[8:1],,,,
{16}
6-8[8:1],,,,2-4[8:1],,,,7-1[8:1],,,,3-5[8:1],,,,
{16}
8-2[8:1],,,,4-6[8:1],,,,8>2[8:1],,,,4<6[8:1],,,,
{16}
8xv2[8:1],,,,4xv6[8:1],,,,8xv1[8:1],,,,4xv5[8:1],,,,
{16}
8xpp2[8:1],,,,4xpp6[8:1],,,,8xpp1[8:1],,,,4xpp5[8:1],,,,
{16}
8$`4?-8[4:5],,,,,,,,,,,,,,,,
{16}
,,,,,,,,,,B8/B1/E1h[8:3],,B5/B4/E5h[4:1],,,,
{16}
,,,,7$`2?<7[4:1],,,,,,5pp8[8:3],,,,5,,
{16}
2$`8?q2[8:3],,,,,,,,,,4qq1[8:3],,,,4,,
{16}
7$`1?p7[8:3],,,,,,,,,,6qq8[8:3],,,,6,,
{16}
1$`8?q1[8:3],,,,,,,,,,4qq5[8:3],,,,4,,
{16}
8$`5?<8[4:1],,,,,,,,,,6qq7[8:3],,,,6,,
{16}
1$`7?q1[8:3],,,,,,,,,,3pp2[8:3],,,,3,,
{16}
8$`2?p8[8:3],,,,,,,,,,5<8[8:1],,,,5,,
{16}
,,1-4[8:1],,1-5[8:1],,1,,1,,,2,,,3,,
{16}
6$`4?-6[8:1],,,,1$`4?>1[8:1],,,,7$`4?-7[8:1],,,,1$`4?>1[8:1],,,,
{16}
8$`4?-8[8:1],,,,1$`4?>1[8:1],,,,5$`4?qq5[4:1],,,,5,,,,
{16}
8-4[8:1],,,,8/1>4[8:1],,,,7-4[8:1]/1,,,,1>4[8:1]/7,,,,
{16}
6-4[8:1]/1,,,,1>4[8:1]/6,,,,8q1[4:1]/1,,,,1/8,,,,
{16}
3$`5?-3[8:1],,,,8$`5?<8[8:1],,,,2$`5?-2[8:1],,,,8$`5?<8[8:1],,,,
{16}
1$`5?-1[8:1],,,,8$`5?<8[8:1],,,,4$`5?pp4[4:1],,,,4,,,,
{16}
1pp8[4:1],,,,1,,,,5qq8[4:1],,,,5,,,,
{16}
2$`6?<2[4:1],,,,6$`2?>6[4:1],,,,,,,,1!p8[4:7]`5!p4[4:7],,,,
{16}
,,,,,,,,,,,,,,,,
{16}
,,,,,,,,,,,,7!pp2[4:7]`3!pp6[4:7],,,,
{16}
,,,,,,,,,,,,,,,,
{16}
,,,,,,,,,,,,8!-3>2-5[4:7]`4!-7<6-1[4:7],,,,
{16}
,,,,,,,,,,,,,,,,
{16}
,,,,,,,,,,,,7?-5[4:1],,,,
{16}
,,,,7?-5[4:1],,,,,,,,7?-5[4:1],,,,
{16}
,,,,7?-5[4:1],,,,,,,,7?-5[4:1],,,,
{16}
4,,,,4`7?-5[4:1],,,,4,,,,4`7?-5[4:1],,,,
{16}
4,,,,4`7?-5[4:1],,,,4,,,,4,,,,
{24}
5/6,,,,,,2,,,,,3,4,,,2,,,1/8,,,,,,
{24}
5/6,,,,,,2,,,,,3,4,,,2,,8,1,,,,,,
{24}
3/4,,,,,,7,,,,,6,5,,,7,,,8/1,,,,,,
{24}
4/3,,,,,,7,,,,,6,5,,,7,,1,8h[4:1],,,,,,
{16}
2,,2,,3/4,,3/4,,4/5,,4/5,,5/6,,5/6,,
{16}
5/7,,8,,4/2,,1,,5/7,,6,,4/2,,3,,
{16}
7,5,6,4,5,3,4,2,7,5,6,4,5,3,4,2,
{24}
8x,7,6,5,4,3,2,1,8,7,6,5,{32}4x,3,2,1,8,7,6,5,{48}4x,3x,2x,1x,8x,7x,6x,5x,4x,3x,2x,1x,
{16}
1?-5[2:1],,,,,,,,,,,,,,,,
{16}
3b>5b[4:5]/6b<4b[4:5],,,,,,,,,,,,,,,,
{16}
,,,,,,,,,,4,5,3,6,2,7,
{16}
1s5b[8:1]/8z4b[8:1],,,,E1f,,,,2-6[8:1]/6,,1/7,,2/6,,,,
{16}
3V57[16:3],,6,,3,,,,6V42[16:3],,2,,6,,,,
{16}
8h[4:1],,,,1<6[8:1],,1>4[8:1],,1-5[8:1],,,,,,4h[4:1],,
{16}
,,5v8<7[4:1],,5-3[8:1],,,,,,,,2/6,,,,
{16}
3qq4[8:3],,,,7,,8qq4[8:3],,,,,,3,,2h[8:7],,
{16}
,,E5,,E6,,E7,,E8,,E1,,E2,,,,
{16}
4-2b[8:1]/5-1b[8:1],,,,4/5,,,,4-8b[8:1]/5-7b[8:1],,,,4/5,,,,
{16}
1>4[8:1],,8q5[8:1],,1,,8,,,,3,,2,,1,,
{16}
5<4[2:1],,,,1x,,,,,,,,,,,,
{16}
3<6[8:1],,6,,3,,,,7>2[8:1],,2,,7pp5[8:3]*pp4[8:3],,,,
{16}
,,,,,,,,3-8[8:1],,4/5,,,,6h[4:1],,
{16}
,,7-4[8:1],,1/8,,,,,,2/5,,3/6,,4/7,,
{16}
8<5[8:1],,,,5/8,,3pp5[8:1],,,,3/6,,7,,8>3[8:1],,
{16}
3p6[16:3],,4,,5,,4,,3/5,,,1/8,,,5/7,,
{16}
5b-3[8:1]/8,,,,1-7[8:1],,,,4-2[8:1],,,,8-6[8:1],,,,
{16}
3-1[8:1],,,,7-5[8:1],,,,2-8[8:1],,,,6<1[8:1],,,,
{16}
5-3[8:1],,,,1-7[8:1],,,,4-2[8:1],,,,8-6[8:1],,,,
{16}
3-1[8:1],,,,7-5[8:1],,,,2p1[4:1],,,,6,,7,,
{16}
8-6[8:1],,,,4-2[8:1],,,,7-5[8:1],,,,3-1[8:1],,,,
{16}
6-4[8:1],,,,2-8[8:1],,,,4<8[4:1],,,,1,,2,,
{16}
3<6[8:1],,7,,3,,,,6>3[8:1],,3,,6,,,,
{16}
1>4[8:1],,8,,7,,6<1[8:1],,5,,4,,3,,2,,
{16}
1-3[8:1],,1,,5-7[8:1],,5,,2-4[8:1],,2,,6-8[8:1],,6,,
{16}
3-5[8:1],,3,,7-1[8:1],,7,,4>8[4:1],,4,,7,,6,,
{16}
5-7[8:1],,5,,1-3[8:1],,1,,6-8[8:1],,6,,2-4[8:1],,2,,
{16}
7-1[8:1],,7,,3-5[8:1],,3,,8-5[8:1],,7,,4-1[8:1],,3,,
{16}
6-8[8:1],,5,,2-4[8:1],,1,,7-1[8:1],,6,,3-5[8:1],,2,,
{16}
8-2[8:1],,7,,4-6[8:1],,3,,1<5[4:1],,1,,4,,3,,
{16}
2-4[8:1],,1,,6-8[8:1],,5,,3-5[8:1],,2,,7-1[8:1],,6,,
{16}
4-6[8:1],,3,,8-2[8:1],,7,,4-6[8:1],,3,,8-2[8:1],,7,,
{16}
4v5[8:1],,3,,8v1[8:1],,7,,4p5[16:3],,3,,8p1[16:3],,7,,
{16}
4,,3,,2,,1,,{32}5,6,7,8,1,2,3,4,5,6,7,8,8?p2[8:13],,,,
{16}
6?>3[2:3],,,,,,,,,,,,
&inote_7=(132)
{16}
4,,,,4,,,,4,,,,4,,,,
{16}
4,,,,4,,,,4,,,,4,,,,
{24}
5/6,,,,,,2,,,,,3,4,,,2,,,1/8,,,,,,
{24}
5/6,,,,,,2,,,,,3,4,,,2,,8,1,,,,,,
{24}
3/4,,,,,,7,,,,,6,5,,,7,,,8/1,,,,,,
{24}
4/3,,,,,,7,,,,,6,5,,,7,,1,8`4?>5[4:3],,,,,,
{16}
,,,,,,,,,,,,,,,,
{32}
E4,E5,E6,,{16},,,,,,,,,,,,,,
{16}
4x-2[8:1],,,,5,,,,4x-2[8:1],,,,5,,,,
{16}
8x-4[8:1],,1x-3[8:1],,8,,1,,,,6,,7,,8,,
{16}
4>5[2:1],,,,8x,,,,,,,,,,,,
{16}
6>3[8:1],,3,,6,,,,3<6[8:1],,6,,3,,,,
{16}
8h[4:1],,,,1-3[8:1],,1-7[8:1],,1-5[8:1],,,,,,6h[8:3],,
{16}
,,5-2>4[4:1],,5-8[8:1],,,,,,,,4/6,,,,
{16}
6pp5[8:3],,,,2,,1pp5[8:3],,,,,,6,,7h[8:7],,
{16}
,,E5,,E4,,E3,,E2,,E1,,E8,,,,
{16}
7x-5[8:1]/8x-5[8:1],,,,7/8,,,,7x-5[8:1]/8x-5[8:1],,,,7/8,,,,
{16}
3x-1[8:1],,4x-8-6[16:3],,3,,4,,,,2,,3,,4,,
{16}
5<4[2:1],,,,1x,,,,,,,,,,,,
{16}
3<6[8:1],,6,,3,,,,7>2[8:1],,2,,7,,,,
{16}
4h[4:1],,,,5-7[8:1],,5-3[8:1],,5-1[8:1],,,,,,2h[8:3],,
{16}
,,8V64[4:1],,8-2[8:1],,,,,,,,3>6[4:1]*p6[4:1],,,,
{16}
,,,,,,,,5-2[8:1],,3,,7h[4:1],,,,
{16}
1-6[8:1],,7,,3h[4:1],,,,5,,4,,6h[4:1],,,,
{16}
1-3[8:1],,,,5-7[8:1],,,,2-4[8:1],,,,6-8[8:1],,,,
{16}
3-5[8:1],,,,7-1[8:1],,,,4-6[8:1],,,,8<5[8:1],,,,
{16}
3-1[8:1],,,,7-5[8:1],,,,2-8[8:1],,,,6-4[8:1],,,,
{16}
1-7[8:1],,,,5-3[8:1],,,,8>4[4:1],,,,6,,7,,
{16}
8-6[8:1],,,,4-2[8:1],,,,7-5[8:1],,,,3-1[8:1],,,,
{16}
6-4[8:1],,,,2-8[8:1],,,,5-3[8:1],,,,1>4[8:1],,,,
{16}
6-8[8:1],,,,2-4[8:1],,,,7-1[8:1],,,,3-5[8:1],,,,
{16}
8-2[8:1],,,,4-6[8:1],,,,8>2[8:1],,,,4<6[8:1],,,,
{16}
8xv2[8:1],,,,4xv6[8:1],,,,8xv1[8:1],,,,4xv5[8:1],,,,
{16}
8xpp2[8:1],,,,4xpp6[8:1],,,,8xpp1[8:1],,,,4xpp5[8:1],,,,
{16}
8$`4?-8[4:5],,,,,,,,,,,,,,,,
{16}
,,,,,,,,,,B8/B1/E1h[8:3],,B5/B4/E5h[4:1],,,,
{16}
,,,,7$`2?<7[4:1],,,,,,5pp8[8:3],,,,5,,
{16}
2$`8?q2[8:3],,,,,,,,,,4qq1[8:3],,,,4,,
{16}
7$`1?p7[8:3],,,,,,,,,,6qq8[8:3],,,,6,,
{16}
1$`8?q1[8:3],,,,,,,,,,4qq5[8:3],,,,4,,
{16}
8$`5?<8[4:1],,,,,,,,,,6qq7[8:3],,,,6,,
{16}
1$`7?q1[8:3],,,,,,,,,,3pp2[8:3],,,,3,,
{16}
8$`2?p8[8:3],,,,,,,,,,5<8[8:1],,,,5,,
{16}
,,1-4[8:1],,1-5[8:1],,1,,1,,,2,,,3,,
{16}
6$`4?-6[8:1],,,,1$`4?>1[8:1],,,,7$`4?-7[8:1],,,,1$`4?>1[8:1],,,,
{16}
8$`4?-8[8:1],,,,1$`4?>1[8:1],,,,5$`4?qq5[4:1],,,,5,,,,
{16}
8-4[8:1],,,,8/1>4[8:1],,,,7-4[8:1]/1,,,,1>4[8:1]/7,,,,
{16}
6-4[8:1]/1,,,,1>4[8:1]/6,,,,8q1[4:1]/1,,,,1/8,,,,
{16}
3$`5?-3[8:1],,,,8$`5?<8[8:1],,,,2$`5?-2[8:1],,,,8$`5?<8[8:1],,,,
{16}
1$`5?-1[8:1],,,,8$`5?<8[8:1],,,,4$`5?pp4[4:1],,,,4,,,,
{16}
1pp8[4:1],,,,1,,,,5qq8[4:1],,,,5,,,,
{16}
2$`6?<2[4:1],,,,6$`2?>6[4:1],,,,,,,,1!p8[4:7]`5!p4[4:7],,,,
{16}
,,,,,,,,,,,,,,,,
{16}
,,,,,,,,,,,,7!pp2[4:7]`3!pp6[4:7],,,,
{16}
,,,,,,,,,,,,,,,,
{16}
,,,,,,,,,,,,8!-3>2-5[4:7]`4!-7<6-1[4:7],,,,
{16}
,,,,,,,,,,,,,,,,
{16}
,,,,,,,,,,,,7?-5[4:1],,,,
{16}
,,,,7?-5[4:1],,,,,,,,7?-5[4:1],,,,
{16}
,,,,7?-5[4:1],,,,,,,,7?-5[4:1],,,,
{16}
4,,,,4`7?-5[4:1],,,,4,,,,4`7?-5[4:1],,,,
{16}
4,,,,4`7?-5[4:1],,,,4,,,,4,,,,
{24}
5/6,,,,,,2,,,,,3,4,,,2,,,1/8,,,,,,
{24}
5/6,,,,,,2,,,,,3,4,,,2,,8,1,,,,,,
{24}
3/4,,,,,,7,,,,,6,5,,,7,,,8/1,,,,,,
{24}
4/3,,,,,,7,,,,,6,5,,,7,,1,8h[4:1],,,,,,
{16}
2,,2,,3/4,,3/4,,4/5,,4/5,,5/6,,5/6,,
{16}
5/7,,8,,4/2,,1,,5/7,,6,,4/2,,3,,
{16}
7,5,6,4,5,3,4,2,7,5,6,4,5,3,4,2,
{24}
8x,7,6,5,4,3,2,1,8,7,6,5,{32}4x,3,2,1,8,7,6,5,{48}4x,3x,2x,1x,8x,7x,6x,5x,4x,3x,2x,1x,
{16}
1?-5[2:1],,,,,,,,,,,,,,,,
{16}
3b>5b[4:5]/6b<4b[4:5],,,,,,,,,,,,,,,,
{16}
,,,,,,,,,,4,5,3,6,2,7,
{16}
1s5b[8:1]/8z4b[8:1],,,,E1f,,,,2-6[8:1]/6,,1/7,,2/6,,,,
{16}
3V57[16:3],,6,,3,,,,6V42[16:3],,2,,6,,,,
{16}
8h[4:1],,,,1<6[8:1],,1>4[8:1],,1-5[8:1],,,,,,4h[4:1],,
{16}
,,5v8<7[4:1],,5-3[8:1],,,,,,,,2/6,,,,
{16}
3qq4[8:3],,,,7,,8qq4[8:3],,,,,,3,,2h[8:7],,
{16}
,,E5,,E6,,E7,,E8,,E1,,E2,,,,
{16}
4-2b[8:1]/5-1b[8:1],,,,4/5,,,,4-8b[8:1]/5-7b[8:1],,,,4/5,,,,
{16}
1>4[8:1],,8q5[8:1],,1,,8,,,,3,,2,,1,,
{16}
5<4[2:1],,,,1x,,,,,,,,,,,,
{16}
3<6[8:1],,6,,3,,,,7>2[8:1],,2,,7pp5[8:3]*pp4[8:3],,,,
{16}
,,,,,,,,3-8[8:1],,4/5,,,,6h[4:1],,
{16}
,,7-4[8:1],,1/8,,,,,,2/5,,3/6,,4/7,,
{16}
8<5[8:1],,,,5/8,,3pp5[8:1],,,,3/6,,7,,8>3[8:1],,
{16}
3p6[16:3],,4,,5,,4,,3/5,,,1/8,,,5/7,,
{16}
5b-3[8:1]/8,,,,1-7[8:1],,,,4-2[8:1],,,,8-6[8:1],,,,
{16}
3-1[8:1],,,,7-5[8:1],,,,2-8[8:1],,,,6<1[8:1],,,,
{16}
5-3[8:1],,,,1-7[8:1],,,,4-2[8:1],,,,8-6[8:1],,,,
{16}
3-1[8:1],,,,7-5[8:1],,,,2p1[4:1],,,,6,,7,,
{16}
8-6[8:1],,,,4-2[8:1],,,,7-5[8:1],,,,3-1[8:1],,,,
{16}
6-4[8:1],,,,2-8[8:1],,,,4<8[4:1],,,,1,,2,,
{16}
3<6[8:1],,7,,3,,,,6>3[8:1],,3,,6,,,,
{16}
1>4[8:1],,8,,7,,6<1[8:1],,5,,4,,3,,2,,
{16}
1-3[8:1],,1,,5-7[8:1],,5,,2-4[8:1],,2,,6-8[8:1],,6,,
{16}
3-5[8:1],,3,,7-1[8:1],,7,,4>8[4:1],,4,,7,,6,,
{16}
5-7[8:1],,5,,1-3[8:1],,1,,6-8[8:1],,6,,2-4[8:1],,2,,
{16}
7-1[8:1],,7,,3-5[8:1],,3,,8-5[8:1],,7,,4-1[8:1],,3,,
{16}
6-8[8:1],,5,,2-4[8:1],,1,,7-1[8:1],,6,,3-5[8:1],,2,,
{16}
8-2[8:1],,7,,4-6[8:1],,3,,1<5[4:1],,1,,4,,3,,
{16}
2-4[8:1],,1,,6-8[8:1],,5,,3-5[8:1],,2,,7-1[8:1],,6,,
{16}
4-6[8:1],,3,,8-2[8:1],,7,,4-6[8:1],,3,,8-2[8:1],,7,,
{16}
4v5[8:1],,3,,8v1[8:1],,7,,4p5[16:3],,3,,8p1[16:3],,7,,
{16}
4,,3,,2,,1,,{32}5,6,7,8,1,2,3,4,5,6,7,8,8?p2[8:13],,,,
{16}
6?>3[2:3],,,,,,,,,,,,
