&title=シル・ヴ・プレジデント
&artist=P丸様。
&first=0.26
&des=Hisui
&des_5=Hisui
&seek=0.00
&wholebpm=176
&demo_seek=49.2
&demo_len=12.6
&lv_1=音
&lv_5=13+
&inote_1=(176)
{4}
1,1,1,1,1,1,1,1,
1,1,1,1,1,1,1,1,
1,1,1,1,1,1,1,1,
1,1,1,1,1,1,1,1,
1,1,1,1,1,1,1,1,
1,1,1,1,1,1,1,1,
1b,E,
&inote_5=(176)
{8}
6,5,4V68[4:1],3,,2,2,,
3,4,5-1[8:1],6,,8,8b,8,
{4}
2h[8:1]/8h[8:1],5h[8:1]/6h[8:1],1h[8:1]/7h[8:1],3<1[8:3]/4<1[8:3],
,,1-5[8:1],1b,
{8}
7,8^5[8:1],1,2h[4:1],,4,3,5,
{16}
4,,6,7,8,,3,,2-6[8:1],,1,,2,,,,
{8}
8,1^6[8:1],2,3h[4:1],,4,2,5,
{16}
1,,1,2,3-8[8:1],,3,,7-3[8:1]*-4[8:1],,7,,7,,,,
{8}
2,1^4[8:1],8,7h[4:1],,5,6,4,
{16}
5,,3,2,1,,6,,7-3[8:1],,8,,7,,,,
{8}
1,8^3[8:1],7,6h[4:1],,5,7,4,
{16}
8,,3,2,1-4[8:1],,1,,5w1[8:1],,5,,5,,,,
{8}
6b/8b,,1b/3b,,5b/6b,,3/4-1[8:1],3/4,
{16}
,,,,2,8,2,8,3h[8:1],,5h[8:1],,4h[8:1],,6,6,
,5,5,,,,7,4,7,3,6,2,5,2h[8:1],,1,
,7,8,7,1h[16:3],,5,5,
{24}
,,,3h[12:1],,4h[12:1],,3h[12:1],,5h[12:1],,4h[12:1],
,6h[12:1],,5h[12:1],,6,
{8}
,5-8[8:1]/6,5/6,,,,
{16}
7,1,7,1,6h[8:1],,4h[8:1],,5h[8:1],,3,3,,4,4,,
{12}
,2,2h[4:1],,,1,2,1,3,8,4,7,
5,6h[48:11],,
{16}
,2,8,2,7-4[8:1],1,7,1,7,,,,
3,5,2,6,1s5[4:1]*s5[4:1],,,,6,,7b,,7-3[8:1],,7,,
{8}
1bv4[8:1]*v6[8:1]/7,,1b,,5,6,4/7,3,
2-6[8:1],,7h[2:1],,6,5pp4[8:3],4,3,
,2,2V48[8:3],,4,5,6,7V51[8:3],
,5,4,3,,2,2-6[8:1],2,
2/8bw4[8:1],,8b,,4,3,2/5,6,
7-3[8:1],,4qq7[8:3],,6,6,,6,
6h[4:1]/8h[4:1],,,3,1q5[8:1]*p5[8:1]/3,,,,
{16}
4/6,,5,3,6,2,7,1,8v5[8:1],,8,,1,,2,,
{8}
3qq4[8:3],,,4q5[8:3],4,,,,
6pp5[8:3],,,5p4[8:3],5,,,,
,3,2,1/8,7h[4:1],,6,5,
{16}
4/5,,,3>6[16:3],,,6<3[16:3],,,,5,,5b,,,,
4b,,2,2,1b,,3/5,,1b-5[8:1]/8b-4[8:1],,4/6,,1b/8b,,,,
3/5,,7,8,6,,3,4,2^7[16:3],,8^5[16:3],,6>8[8:3],,4h[8:7],,
{8}
,,,,,7,7,,
{7.9}
1b,,2b,,
{7.7}
3b-8[8:1],7,7,7,
{8}
7b-3[8:1],,1v4[8:1]*v6[8:1]/7,,1,,3/5,1-5[8:1]/6,
,1/6pp4[8:3],6,4,,3-8[8:1],3,5-1[8:1],
,4-8[8:1]/5,4,6-1[8:1],,5-2[8:1]/6,5,8h[8:3],
{4}
,1-5[8:1],1/7-4[8:1],3<2[4:1]/7,
{8}
3b/8h[4:1],,,6,4/6h[4:1],,1,2,
3/7,2/6<5[2:1],3/7,2/6,,4,4,,
2q7[4:1],8,7,6q3[4:1],,2,2,2h[4:1],
,8-4[8:1],7,1-5[8:1]/8,2,1/6b,6,6,
6h[4:1],,4qq4[4:1]*pp4[4:1],4,4,,,,
1-3[8:1]/6-4[8:1],7/8,1qq4[4:1]/6pp3[4:1],,1/6,,,,
7h[4:1],,1,2/8,3^8[8:1]/7^4[8:1],,3/7,,
4^7[8:1]/8^3[8:1],4/8,4/8-4[8:1],,4w8[8:1]/8,,4,,
2-5[8:1],,7-3[8:1],,4V26[4:1],,6-1[8:1],7,
8,8^3[8:1]*^5[8:1],,8,,4,3/5,2,
{4}
1h[8:1]/7h[8:1],3h[8:1]/4h[8:1],2h[8:1]/8h[8:1],5>8[8:3]/6>8[8:3],
,,8-4[8:1],8b>8[2:1]*<8[2:1],
{16}
,,,,,,,,,,,,,,2,3,
4,7,6,5,1h[8:1],,7h[8:1],,3<8[16:3],,3h[8:3],,,,,,
1h[8:3],,2-6[16:1],,,,,,7,5,7,5,6,4,6,4,
5,,3,4,2,,7,8,6-1[8:1],,1,,2,,3,,
4,8,4,8,4,7,4,7,4,6,3,5,4,6,3,5,
{8}
2-6[8:1],4,2,7-3[8:1],5-1[8:1],7,5,,
{3.98}
6b/8b,3b/4b,1b/3b,5b>8[8:3]/6b>8[8:3],
{4}
,,8w4[8:1],8,
{8}
1b/8,,2b/7,,3b/6-1[8:1],4,4,4,
{8}
8b^3[8:1]*^5[8:1],,8-4[8:1],,8,,3/5,1/6pp5[4:1],
,5>7[4:1],4,3,,4-8[8:1],4,7-3[8:1],
,2-6[8:1]/7,2,5-1[8:1],,4-8[8:1]/5,4,7h[8:3],
{4}
,2-5[8:1],2/8-4[8:1],3>4[4:1]/8,
{8}
3b/8h[4:1],,,8qq8[4:1],3/8,,1,1,
2/6,3>4[2:1]/7,2/6,3/7,,5,5,,
7p2[4:1],1,2,3p6[4:1],,7,7,7h[4:1],
,1-5[8:1],2,1/8-4[8:1],7,3b/8,3,3,
3h[4:1],,6<2[4:1],6,2v4[4:1],,,,
3,2/5,1-3[8:1]/7-5[8:1],,1v4[8:1]/7v4[8:1],,1/7,,
2h[4:1],,7q7[4:1],7,3p3[4:1],,3,,
6,6,2^5[8:1]/6^1[8:1],,2v5[8:1]*v7[8:1]/6,,2,,
7-4[8:1],,2-6[8:1],,5V73[4:1],,3-8[8:1],2,
1,1b^4[8:1]*^6[8:1],,1b,,5,4/6,7,
{4}
2h[8:1]/8h[8:1],5h[8:1]/6h[8:1],1h[8:1]/7h[8:1],3<1[8:3]/4<1[8:3],
,,1-5[8:1],1bw5[8:1],
{8}
1b,,6,7,8,1/8b,2/7b,3,
4b/5b,6,7bpp5[4:1]/8b,1,2b,,4b,,
7,8^5[8:1],1,2h[4:1],,4,3,5,
{16}
4,,6,7,8,,3,,2-6[8:1],,1,,2,,,,
{8}
8,1^6[8:1],2,3h[4:1],,4,2,5,
{16}
1,,1,2,3-8[8:1],,3,,7-3[8:1]*-4[8:1],,7,,7,,,,
{8}
2,1^4[8:1],8,7h[4:1],,5,6,4,
{16}
5,,3,2,1,,6,,7-3[8:1],,8,,7,,,,
{8}
1,8^3[8:1],7,6h[4:1],,5,7,4,
{16}
8,,3,2,1-4[8:1],,1,,5w1[8:1],,5,,5,,,,
{4}
6b/8b,1b/3b,5b/6b,3b/4b,
{16}
5b/7b,,,,2b/4b,,,,1/8,,2,7,3,6,4>5[8:9]/5<4[8:9],,
{1}
,
,
,
E
