&title=宇宙残骸少女
&artist=辻原
&first=0
&des=ﮩ٨ــM0caﮩ٨ــziranﮩ٨ــ
&demo_seek=87
&demo_len=16
&des_5=ﮩ٨ــM0caﮩ٨ــziranﮩ٨ــ
&lv_5=13+
&inote_5=(70){4},,,,,,5<1[4:1],
{8}5/1>5[4:1],C,
{4}5V71[4:1],{8}1V35[4:1],C,{4}5V71-5[8:3],C,
{16},2h[16:3],,,{4}5h[8:1],4-7[8:1],{8}3/4-1[8:1],3,
{4}5/4-8[8:1],{8}4<4[4:1],3,{4}4/5-1[8:1],{8}5-8[8:1],6,
{16}5,3h[16:3],,,{4}4-2[8:1],{8}6-2[8:1]*-4[8:1],7,{4}6<8[8:1],
{8}6/4-1[8:1],4-7[8:1],{4}6,{8}1-6[8:1],8/7,8/1-4[8:1],1,
{4}8/1-5-3[4:1]*-5[32:5],{8}1b,6,5-2[8:1],4,4-1[8:1],4,
4-7[8:1],5,5-8[8:1],5,1-5[8:1],2,5-7-3-5[4:1],7,
{4}5/4,Cf,{16}7x-5[16:1]/3x-1[16:1],7x/3x,,3x/7x,{4}3x<6[8:1]/7x>2[8:1],
7-4-8[4:1],{8}7/3,3,{16}4>1[8:1]*<7[8:1],6/2,,4,4w8[8:1],,,4,
{4}4,{8}2/6,4/8,{16}2-4[8:1]/6-8[8:1],7/3,,3/7,{4}2-8[8:1]/6-4[8:1],
6/2,{8}4/8-6-4[8:1],4-2-8[8:1],{16}3/8-4[8:1],3,,4,{4}4,
{16}3V51-3[4:1],5,,5,{4}3,{8}7<4[8:1],8,1p4[8:1],2,
3-7[8:1],2>1[4:1],3,2,{4}C,{8}2V47[4:1],3/4,
{16}7<5-1[4:1],{32},,,,,,,,,,,,7x,6x,{8}5x-1[8:1],6/4,5<8[8:1],6,
5>2[8:1],4,5,6h[8:1],{4}3h[4:1],{8}5,6,
{4}7h[4:1],1h[8:1],{16}1x-5[16:1],5x-1[16:1],3x-7[16:1],7x-3[16:1],,,,,8x-4[16:1],
4x-8[16:1],6x-2[16:1],2x-6[16:1],,,,,1x-5[16:1],2x-4[16:1],5x-7[16:1],4x-8[16:1],,,,,5x-1[16:1],
4x-2[16:1],1x-7[16:1],2x-6[16:1],,,,,8x-5[16:1],1x-4[16:1],8x-3[16:1],1x-6[16:1],,,,,5x-8[16:1],
4x-1[16:1],5x-2[16:1],4x-7[16:1],,,,,8x<6[16:1]*>2[16:1],7x/1x,2x>4[16:1]/6x>4[16:1],5x/3x,{4}8x,
{16}1x>3[16:1]*<7[16:1],2x/8x,7x<5[16:1]/3x<5[16:1],4x/6x,{4}1x,{16}3-8[16:1],2,2,2,7-4[16:1],6,6,6,
3-8[16:1],2,2,2,7-4[16:1],6,6,6,1-6[16:1],2,2,2,5-2[16:1],5,5,5,
1-6[16:1],1,1,1,5-2[16:1],5,5,5,6-1[16:1],7,8,7,2-5[16:1],3,4,3,
6-1[16:1],7,8,7,2v4b[16:1],3,4,3,6v8b[16:1],7,8,7,2v8b[16:1],1,8,1,
6v4b[16:1],7,8,7,2,3,4,5,7v5[16:1]/3v1[16:1],3/7,7v6[16:1]/3v2[16:1],7/3,,,,,5v7[16:1]/3v2[16:1],
5/3,5v6[16:1]/3v1[16:1],5/3,,,,,7v5[16:1]/3v1[16:1],3/7,6v4[16:1]/2v8[16:1],6/2,,,,,4v2[16:1]/8v6[16:1],
8/4,3v1[16:1]/7v5[16:1],3/7,,,,,6-1[16:1],1-5[16:1],5-2[16:1],2-6[16:1],,,,,7-3[16:1],
8-4[16:1],1-5[16:1],2-6[16:1],,,,,8<5[16:1],2>5[16:1],8-4[16:1],2-6[16:1],,,,,1>4[16:1],
7<4[16:1],1-5[16:1],7-3[16:1],{32},,,,,,,,1,2,3,4,8w4[16:1],7,6,5,8,1,8,7,,,,,8,
7,6,5,1w5[16:1],2,3,4,1,8,1,2,,,,,5,6,7,8,2-6[16:1],3,4,5,1,8,7,6,{8}2b,
{32}4,3,2,1,7-3[16:1],6,5,4,8,1,2,3,{16}7b,{32}1x,2x,{8}3x-5[16:1],2,5-7[16:1],4,
7-1[16:1],6,7,3h[8:1],{4}5<5[4:1],5b>5b[4:1],
3p1[4:1],3,{2}Ch[4:1],
B7/Ch[4:1],B8/Ch[4:1],
B1/Ch[4:1],B2/Ch[4:1],
E1/Ch[4:1],{16}Ch[1:1],,,,,,,B7,
{32},B8,,,{8}B1,{32},E1f,
E
