&title=Ten Thousand tons of Anonymous Letters
&artist=闫东炜
&first=0.02
&des=Tane
&freemsg=闫东炜
&wholebpm=
&des_1=Tane
&des_2=Tane
&des_3=Tane
&des_4=Tane
&des_5=Tane
&lv_5=13
&inote_5=(120){1},
{16}25,,4,,
25,,4-6[8:1],,
2-4[8:1]/5,,,,
,,,,
{16}25,,4-6[8:1],,
2h[8:1],,,,
2,,34,,
7,,56,,
{16}74,,5,,
74,,5-3[8:1],,
7-5[8:1]/4,,,,
,,,,
{16}56,,2,,
34,,8,,
7-5[8:1],,1-7[8:1],,
,,,,
{16}6,,24,,
6,,3-5[8:1]/4,,
1-3[8:1],,,,
,,7,,
{16}84,,6,,
47,,8,,
6,5,6,5,
7,4,7,,
{16}83,,6,,
45,,6-4[8:1],,
8-6[8:1]/3,,,,
,,3,,
{16}1,,34,,
7,,56,,
2,,34,,
5,4,6,,
{16}83,,6,,
38,,6-4[8:1],,
8-6[8:1]/3,,,,
,,3,,
{16}15,,3,,
48,,6,,
3,4,3,4,
2,5,2,,
{16}64,,4-6[8:1],5,
2h[8:1],,,,
2,,5-3[8:1],4,
7h[8:1],,,,
{16}7,3,6,4,
7,3,6,4,
8b,,,,
4,6,3,5,
{16}1,1,1,,
5,3,6,4,
7,7,7,,
4,6,3,5,
{16}2,2,2,,
5,3,6,4,
8,8,8,,
4,6,3,5,
{16}1,,1,2b/8b,
,8,1b/7b,,
3,2b/4b,,5b/7b,
,3b/4b,,5b/6b,
{16},6,5b/7b,,
1b/2b,,7b/8b,,
7,6b/8b,,3b/4b,
,1b/2b,,2,
{16}1b/3b,,7b/8b,,
5b/6b,,3,2b/4b,
,7b/8b,,1b/2b,
,18,2b/7b,,
{16},,,,
,,,,
,,,,
,,,,
{16}6V42[8:3],,,,
,,2v8[8:3],,
1,,,,
,,,,
{16}3V57[8:3],,,,
,,7v1[8:3],,
8,,,,
,,,,
{16}8v2[8:3],,,,
,,2V46[8:3],,
1,,,,
,,,,
{16}1v7[8:3],,,,
,,7V53[8:3],,
8h[4:1],,,,
,,,,
{16}7h[4:3],,,,
,,5,,
4h[4:2],,,,
,,6,,
{16}7h[4:1],,,,
6h[4:1],,,,
4h[4:1],,,,
3h[4:1],,1,,
{16}8h[4:3],,,,
,,2,,
3h[4:2],,,,
,,8,,
{16}8h[4:2],,,,
6,,5h[8:3],,
,,3h[8:3],,
,,1,,
{16}2h[4:3],,,,
,,7,,
6h[4:2],,,,
,,1,,
{16}8h[4:1],,,,
3h[4:1],,,,
6h[8:3],,,,
8,,1h[8:4],,
{16}7h[4:1],,,,
,,6h[8:5],,
7h[8:1],,,,
7,,8,,
{16}1h[4:2],,,,
2,,3h[8:3],,
,,5,,
,,,,
{16}35,,4,5,
3,,4-6[8:1],5,
2-4[8:1],,,,
,,,,
{16}38,,8,1,
7,,8-2[8:1],,
6-4[8:1]/1,,8-4[8:1],,
,,,,
{16}5,,5,4,
6,,5-3[8:1],4,
7-1[8:1],,5v3[8:1],,
,,,,
{16}8,,57,,
3,4,3,,
34,,25,,
34,,34,,
{16}25,,3,4,
2,,3-5[8:1],5,
1-7[8:1],,3-7[8:1],,
,,,,
{16}1,,1,5,
2,,2,5,
2,4,2,4,
3,5,3,,
{16}46,,6,4,
7,,6-4[8:1],4,
8-2[8:1],,6v4[8:1],,
,,,,
{16}8,,8,4,
6,5,7,,
47,,2,5,
3,6,4,,
{16}74,,6,5,
7,,6-4[8:1],4,
8-2[8:1],,6-2[8:1],,
,,,,
{16}8,,8,4,
7,,7,4,
7,5,7,5,
6,4,6,4,
{16}35,,3,5,
1,,6,4,
8,,3,5,
8,,6,4,
{16}1,,2,5,
8,,7,4,
1,,28,,
17,,,,
{16}
2-8[8:1]/6-4[8:1],,,,
2-4[8:1]/6-8[8:1],,,,
2v8[8:1],,,,
6-4[8:1],,,,
6-8[8:1]/2-4[8:1],,,,
2-8[8:1]/6-4[8:1],,,,
2v8[8:1]/6q4[8:1],,,,
,,,,
7-1[8:1]/3-5[8:1],,,,
7-5[8:1]/3-1[8:1],,,,
7v1[8:1],,,,
3-5[8:1],,,,
3-1[8:1]/7-5[8:1],,,,
7-1[8:1]/3-5[8:1],,,,
7v1[8:1]/3p5[8:1],,,,
,,,,
26,,3,5,
2,,3,5,
2^4[8:1],,1,5,
2,,,,
6-8[8:1]/2-4[8:1],,,,
2-8[8:1]/6-4[8:1],,,,
2v8[8:1]/6q4[8:1],,,,
,,,,
73,,6,4,
7,,6,4,
7^5[8:1],,38,,
7,,,,
3-1[8:1]/7-5[8:1],,,,
7-1[8:1]/3-5[8:1],,,,
7v1[8:1]/3p5[8:1],,,,
,,,,
26,,3,5,
2,,3,5,
2-8[8:1],4,3,5,
,,,,
17,,26,,
35,,4,,
2/4w8[8:1],,57,,
,,,,
37,,8,4,
6,,8,4,
7-4[8:1],5,6,4,
,,,,
53,,62,,
71,,8,,
6/8w4[8:1],,13,,
,,,,
2-4[16:1]/7,,1,5,
2,,1,7,
2-4[16:1],,1,5,
2,,,,
8,3,7,4,
6,1,5,2,
8,2,7,4,
6,,,,
7-5[16:1]/2,,8,4,
7,,8,2,
7-5[16:1],,18,,
72,,,,
34,,34,,
2,5,2,,
56,,56,,
7,4,7,,
34,,24,,
2,5,1,,
65,,75,,
7^4[8:1],4,8,,
,,,,
,,{32}1,2,3,4,
{16}5b>1[1:1],,,,
{1},,,
