&title=暁星アストレーション
&artist=天城サリー; 田中美海
&first=1.84
&des=O```
&lv_1=-1
&lv_2=-1
&lv_3=-1
&lv_4=-1
&lv_5=14
&lv_6=14
&inote_2=(200)
{4},,,,
{8}3xqq8[4:5],5h[4:1],,,6h[4:1],,,7h[8:3],,,,,,,,{16}7x,6x,
{8}5xpp2[4:5],2h[4:1],,,3h[4:1],,,4h[8:3],,,,,,,,{16}3x,4x,
{8}5xqq2[4:5],6h[4:1],,,7h[4:1],,,8h[8:3],,,,,,,,{16}6x,5x,
{8}4xpp1[4:3],2h[4:1],,,3h[4:1],,,4h[8:3],,,,,18,2V84[8:2]/7V15[8:2],,{8}2/7b,
{8},,E1f,,6h[8:3],5,5,5,2h[8:3],4,4,4,7h[8:3],8-4[8:1],8,8,,{16},,{8},,5/2<4[8:3],3/4,,4>8[4:1],,8<5[4:1],,5>2[4:1],,2,,1-5[8:1]*-6[8:1],,
,,,{8}3h[8:3],4,4,4,7h[8:3],5,5,5,2h[8:3],4<7[8:1],4,4,,{16},,{8},,38,2>5[8:1]/1,,
{4}6h[8:3]/2,{16}7x<4[8:1],8x,1x,,{4}7/3h[8:3],{16}2xqq6<2qq5[8:11],1x,8x,,{8},
,,E3f/B3/B2,,5,5,5,5,6,6,6,6,7h[4:1],E6,C,E2fh[8:2],,{16},,
{8},,6/1>7[8:3],8/7,,7>3[4:1],,3<7[4:1],,7>3[4:1],,3,,4-8[8:1]*-7[8:1],,
,,,{8}2h[8:3],1,1,1,6h[8:3],8,8,8,3h[8:3],4-8[8:1],4,4,,{16},,{8},,74,5/6,,
{16}42,,1,5,1,5,1,5,{8}2x-7[8:1]/6x-3[8:1],6/2,,,1h[4:1],
,,4,,5-7[8:1],5,4,,3-1[8:1],,4,,5,{8}5-7[8:1]/8-4[8:1],,,
,3,3,,2-4[8:1],2,1,,6-8[8:1],,5,,2V46[4:1],2h[8:4]/1,,,
,7,7,,1-4[8:1],1,7,,8-5[8:1],,2,,1,1-3[8:1]/4-8[8:1],,,
{8},,7qq4[8:3],,8h[8:3],,,,1,2-4[8:1],,8-6[8:1],,1-5[8:1],,,
,,8b,,1-3[8:1],1,8,,7-5[8:1],,8,,1,{8}1-3[8:1]/4-8[8:1],,,
,7,7,,6-8[8:1],6,5,,2-4[8:1],,1,,6,5-1[8:1]/6,,8b,,,2>5[8:1],1,,,7<4[8:1],8,,,2-6[8:1],1h[8:3],,,7,8h[8:1]/1,,8h[8:1]/7,,8h[8:1]/2,,8h[8:1]/6,,8h[8:1]/3,,8h[8:1]/5,,6h[8:1]/5h[16:1],,4h[16:1]/3h[8:1],,{8}81,
{1}2qq7[4:3]/7,5p4[4:3],7pp2[4:3],4q5[4:3],{4}3h[4:1],E2,E1,E8,{16}4,5,4,5,4,5,4,5,
{8}36,2b-6[8:1]/7,,1b-5[8:1],,8b-4[8:1],,7b-3[8:1],,5bw1[8:1],,,,{24}D8,D7,D6,D5,D4,D3,D2,,,
{8}1x/8x,1x/8x,1x/8x,
{8}7b/2b,,{16},,{8}2q6[8:1],,12,,7b,,5>2[8:1],5,1q5[8:1],,81,,6b,,4-1[8:1],4,8>3[8:1],,8<5[8:1]/7,,1s5[8:2]/8v3[8:1],,81,,,,
{8}5,4,3<6[8:1],
2h[8:3]/1,,,7,8/1h[4:1],,{16}4,5,6>3[8:1],,{8}
7xh[8:3]/8x,,,2,1/8h[4:1],,{16}5,4,3,,
{8}2xh[4:1]/1x,,8,7b-1[8:1]/4-8[8:1],,7b-5[8:1]/4-6[8:1],,7b-3[8:1]/4-2[8:1],,7b/4,,
8x/1x,7-3[8:1]/2-6[8:1],,7b/2bqq7[8:3],,E5hf[8:3],,,,,
6h[4:2],,8b,,1>4[8:1],1,5p1[8:1],,65,,7b,,2-5[8:1],2,6>3[8:1],,6<1[8:1]/7,,5p2[8:3]/6pp1[8:3],,,,,,4,5,6,7h[8:3]/8,,,1-5[8:1],1,7-4[8:1],,2-6[8:1],2,7-4[8:1],,3-7[8:1],3,7-4-6-2-8-3b[8:6],,,,,,,,,,65,7b-3[8:1],,8b-4[8:1],,1b-5[8:1],,2bpp6b[8:3],,,
,,7,7,7/8-4[8:1],7,7,7,7/3-1[8:1],7,7,7-5[8:1]*-4[8:1],,7-1[8:1]*-2[8:1],,,,,
3-5[8:1],2,7-4[8:1],8,2-6[8:1],1,8<5[8:1],8>3[8:1],,,,4w8[8:1],,4b,
,,2-4[8:1]/6,6,2-8[8:1]/6,6,2-4[8:1]/6,6,6-8[8:1]/2,6-4[8:1],,,,3>8[8:1],,
{8}3/7h[8:3],,{16}6,5,4qq7b[8:3],,{8},6,{16}6,7,{8}8h[4:1],,{24}1,2,3-8[24:4]*-8[6:1],{8}4-8[8:1]*-8[8:1],,3x/4x-7b[8:1]*-6b[8:1],,4xqq6[8:3],,,
,,8,8,8/2-5[8:1],8,8,8,8/6-3[8:1],8,8,8-6[8:1]*-5[8:1],,8-2[8:1]*-3[8:1],,,,,
6-4[8:1],7,2-5[8:1],1,7-3[8:1],8,1>4[8:1],1<6[8:1],,,,5w1b[8:1],,5b,,,,,2-4[8:1],2,1,,8-6[8:1],8,1,,1,{16}1,5,{8}1,1,
||7/2-8-3-1-5-2<5pp4>2[4:5],,
,,,,,,,,,,,
&inote_4=(180){8}8h[8:1]/2h[8:1],,34,,6h[8:1]/4,4,26,,
&inote_5=(200)
{4},,,,
||
第一部分:引子与三声部对位(小节1-4)
||
------------------------------------------------------------
{8}3xqq8[4:5],5h[4:1],,,6h[4:1],,,7h[8:3],,,,,,,,{16}7x,6x,
||
高音声部:上行旋律线
{8}5xpp2[4:5],2h[4:1],,,3h[4:1],,,4h[8:3],,,,,,,,{16}3x,4x,
||
中音声部:和声填充
{8}5xqq2[4:5],8h[4:1],,,7h[4:1],,,6h[8:3],,,,,,,,{16}6x,5x,
||
低音声部:下行对应
||
第二部分:主部主题(小节5-8)
||
------------------------------------------------------------
{8}4xpp1[4:3],2h[4:1],,,3h[4:1],,,4h[8:3],,,,,18,2V84[8:2]/7V15[8:2],,{8}2/7b,
||
主题动机,带音量控制
||
主旋律A段(小节9-12)
{8},,E1f,,
3,3,42,,6,6,7/5,,2,1-5[8:1]/3,,1/8,,,7h[4:1],,6,6>2[4:1],,2<6[4:1],,6>2[4:1],,2<6[4:1],,6,,5-1[8:1]*-2[8:1],,
||
对位旋律(小节13-16)
,,,{8}8,7,56,,1,2,3/4,,7,5p4[8:3]/6,,3h[8:3],,,{8},,2,2>5[8:1],,
||
和声填充与过渡(小节17-20)
{4}12,{16}7x<4[8:1],,,,{4}78,{16}1pp5[8:3],,,,{8}18,
||
第三部分:间奏与音色变化(小节21-24)
,,E8f,,6x,5,47,,3,4,2/5,,7,8>3[8:1]/6,,5h[8:3],,,
||
旋律变奏(小节25-28)
{8}4,,3,3<7[8:2],,7>3[4:1],,3<7[4:1],,7>3[4:1],,3,,4-8[8:1]*-7[8:1],,
||
对应和声(小节29-32)
,,,{8}1,2,43,,8,7,6/5,,2,4qq5[8:3]/3,,7h[8:5],,,{8},,8,8,,
||
第四部分:节奏段落(小节33-36)
{16}62,,3,7,3,7,3,,{8}4x-1[8:1]/8x-5[8:1],8/4,,,3h[4:1],
||
对话式乐句1(小节37-40)
,,4,,5-7[8:1],5,4,,3-1[8:1],,4,,5,{8}5-7[8:1]/8-4[8:1],,,
||
对话式乐句2(小节41-44)
,3,3,,2-4[8:1],2,1,,6,6<1[8:2],,1>4[4:1],,4,,5h[4:1],
||
对话式乐句3(小节45-48)
,6,6,,8-5[8:1],8,2,,1-4[8:1],,7,,8,8-6[8:1]/5-1[8:1],,,
||
第五部分:展开部(小节49-52)
{8},,2pp5[8:3],,1h[8:3],,,,8,7-5[8:1],,1-3[8:1],,8-4[8:1],,,
||
展开部继续(小节46-43)
,,1b,,8-6[8:1],8,1,,2-4[8:1],,1,,8,{8}8-6[8:1]/5-1[8:1],,,
||
展开部继续(小节42-30)
,2,2,,3-1[8:1],3,4,,7-5[8:1],,8,,34,4/3h[4:1],,1b,,
||
高潮前奏(小节38-35)
,7<4[8:1],8,,,2>5[8:1],1,,,7<4[8:1],8,,,3,
||
音阶式上行(小节34-31)
1>4[8:1]/2,,1<6[8:1]/8,,1-4[8:1]/2,,1-6[8:1]/8,,2/1w5[8:1],,1,,
{16}3,4,3,,6,5,6,,{8}18,
||
第六部分:高潮段落(小节69-72)
{1}7pp2[4:3]/2,{8}4q5[4:3],,,,,,,2x,2xqq7[4:3],,,,,,,,{8}5p4[4:3],,,,,,,6x,{4}6xh[4:1],E8,E1,E2,
{16}4,5,4,5,4,5,4,5,
||
快速音阶与装饰(小节73-76)
{8}63,7b-3[8:1]/2,,8b-4[8:1],,1b-5[8:1],,2b-6[8:1],,4bw8[8:1],,,,
{24}A2,A3,A4,A5,A6,A7,{8},
||
节奏加强(小节77-80)
{8}8x/1x,8x/1x,8x/1x,
{8}2b/7b,,{16},,{8}7p3[8:1],,87,,1bh[4:1],,4<7[8:1],,1-5[8:1],1,8,,7bh[4:1],,5>2[8:1],,8<5[8:1]/5,8,1-5[8:1],,8w4[8:1]/1,,8b,,,,{8}4,5,3<6[8:1],
||
第七部分:再现部(小节18-15)
2h[8:3]/1,,,7,8/1h[4:1],,{16},,6>3[8:1],,{8}
7xh[8:3]/8x,,,2,1/8h[4:1],,{16},,3,,
||
和声变奏(小节85-88)
{8}2xh[4:1]/4x<7[8:1],,,{16}8b-4[8:1],,,,8<5[8:1]/2>5[8:1],,,,8-2b[8:1]/2-6b[8:1],,,,8/2,,,,
{8}5x/1x,5>2[8:1]/1<6[8:1],,1b/5bpp2[8:3],,E1hf[8:3],,,,,
||
第八部分:发展部II(小节19-93)
1x/8x,,7bh[4:1],,5>2[8:1],,8-4[8:1],8,1,,2bh[4:1],,4<7[8:1],,1>4[8:1]/4,1,8-4[8:1],,1w5[8:1]/8,,1b,,,,{8}5,4,6,
{8}8/7h[8:2],,2,1/3qq4[8:3],,4,,6xh[4:1],,5,,8/7pp4[8:3],,5,,3x,3h[8:5],,{24}2,1,8,7,6,5,{8}4,,,62,{16}6/2b,,3,4,2b,,6,5,7b,,81,,2b-5[8:1]/7b-4[8:1],,,,{8}
||
第九部分:复调对位段落(小节92-805)
,,,5h[8:1]/3,3,7h[8:1]/3,3,1h[8:1]/3,3,5h[8:1]/3,3<6[8:1]*>1[8:1],,,,
{8}8-4[8:1]/7-4[8:1],,87,,,
6-4[8:1],7,2-5[8:1],1,7-3[8:1],8,1>4[8:1],1<6[8:1],,,,5w1[8:1],,5b,,,
3-5b[8:1],3,7-1b[8:1],7,2-6b[8:1],2,5-3b[8:1],5-1b[8:1],,,,8<4[8:1],,
||
和声填充与过渡(小节17-20)
{8}3h[8:4]/8,,,{16}2x>5[8:1],1x,8x,,{4}2/6h[8:3],{16}7x<4b[8:1],8x,1x>4b[8:1],,{8}7-3b[8:1],1-7b[8:1],7b,1b,,4w8[8:1],,,
||
第十部分:尾声准备(小节804-887)
,,1,1,1/7-4[8:1],1,1,1,1/3-6[8:1],1,1,1-3[8:1]*-4[8:1],,1-7[8:1]*-6[8:1],,,,,
3-5[8:1],2,7-4[8:1],8,2-6[8:1],1,8<5[8:1],8>3[8:1],,,,4w8b[8:1],,4b,,,2>5[8:1],,
{8}6h[8:3]/2,,{16}7x<4[8:1],8x,1x,,{4}7/3h[8:3],{16}2x>5[8:1],1x,8x,,{4}2/6h[8:3],{16}7bx-3[8:1],8bx,1bx>3-5<7-1qq4b[4:5],,
{8},,,,,,,,,,,,,,,,,,,,,,,,,,,,,,,,
6h[4:1],,5,7h[4:1]/4,,8,1/6h[4:1],,5,4/7h[4:1],,8,6/1-6[8:1]*-4[8:1],,,,
3h[4:1],,4,2h[4:1]/5,,1,8/3h[4:1],,4,5/2h[4:1],,1,3/8h[4:1],,1,7/2qq7[4:12],
{4},6>3[4:3],,,,,,,,3<6[4:3],,,,,{8}18,18,18,18,
||
最终和弦与结束
,,,,,,,,,,,
&inote_6=(200)
{4},,,,
||
第一部分:引子与三声部对位(小节1-4)
||
------------------------------------------------------------
{8}3xqq8[4:5],5h[4:1],,,6h[4:1],,,7h[8:3],,,,,,,,{16}7x,6x,
||
高音声部:上行旋律线
{8}5xpp2[4:5],2h[4:1],,,3h[4:1],,,4h[8:3],,,,,,,,{16}3x,4x,
||
中音声部:和声填充
{8}5xqq2[4:5],8h[4:1],,,7h[4:1],,,6h[8:3],,,,,,,,{16}6x,5x,
||
低音声部:下行对应
||
第二部分:主部主题(小节5-8)
||
------------------------------------------------------------
{8}4xpp1[4:3],2h[4:1],,,3h[4:1],,,4h[8:3],,,,,18,2V84[8:2]/7V15[8:2],,{8}2/7b,
||
主题动机,带音量控制
||
主旋律A段(小节9-12)
{8},,E1f,,
3,3,42,,6,6,7/5,,2,1-5[8:1]/3,,1/8,,,7h[4:1],,6,6>2[4:1],,2<6[4:1],,6>2[4:1],,2<6[4:1],,6,,5-1[8:1]*-2[8:1],,
||
对位旋律(小节13-16)
,,,{8}8,7,56,,1,2,3/4,,7,5p4[8:3]/6,,3h[8:3],,,{8},,2,2>5[8:1],,
||
和声填充与过渡(小节17-20)
{4}12,{16}7x<4[8:1],,,,{4}78,{16}1pp5[8:3],,,,{8}18,
||
第三部分:间奏与音色变化(小节21-24)
,,E8f,,6x,5,47,,3,4,2/5,,7,8>3[8:1]/6,,5h[8:3],,,
||
旋律变奏(小节25-28)
{8}4,,3,3<7[8:2],,7>3[4:1],,3<7[4:1],,7>3[4:1],,3,,4-8[8:1]*-7[8:1],,
||
对应和声(小节29-32)
,,,{8}1,2,43,,8,7,6/5,,2,4qq5[8:3]/3,,7h[8:5],,,{8},,8,8,,
||
第四部分:节奏段落(小节33-36)
{16}62,,3,7,3,7,3,,{8}4x-1[8:1]/8x-5[8:1],8/4,,,3h[4:1],
||
对话式乐句1(小节37-40)
,,4,,5-7[8:1],5,4,,3-1[8:1],,4,,5,{8}5-7[8:1]/8-4[8:1],,,
||
对话式乐句2(小节41-44)
,3,3,,2-4[8:1],2,1,,6,6<1[8:2],,1>4[4:1],,4,,5h[4:1],
||
对话式乐句3(小节45-48)
,6,6,,8-5[8:1],8,2,,1-4[8:1],,7,,8,8-6[8:1]/5-1[8:1],,,
||
第五部分:展开部(小节49-52)
{8},,2pp5[8:3],,1h[8:3],,,,8,7-5[8:1],,1-3[8:1],,8-4[8:1],,,
||
展开部继续(小节46-43)
,,1b,,8-6[8:1],8,1,,2-4[8:1],,1,,8,{8}8-6[8:1]/5-1[8:1],,,
||
展开部继续(小节42-30)
,2,2,,3-1[8:1],3,4,,7-5[8:1],,8,,34,4/3h[4:1],,1b,,
||
高潮前奏(小节38-35)
,7<4[8:1],8,,,2>5[8:1],1,,,7<4[8:1],8,,,3,
||
音阶式上行(小节34-31)
1>4[8:1]/2,,1<6[8:1]/8,,1-4[8:1]/2,,1-6[8:1]/8,,2/1w5[8:1],,1,,
{16}3,4,3,,6,5,6,,{8}18,
||
第六部分:高潮段落(小节69-72)
{1}7pp2[4:3]/2,{8}4q5[4:3],,,,,,,2x,2xqq7[4:3],,,,,,,,{8}5p4[4:3],,,,,,,6x,{4}6xh[4:1],E8,E1,E2,
{16}4,5,4,5,4,5,4,5,
||
快速音阶与装饰(小节73-76)
{8}63,7b-3[8:1]/2,,8b-4[8:1],,1b-5[8:1],,2b-6[8:1],,4bw8[8:1],,,,
{24}A2,A3,A4,A5,A6,A7,{8},
||
节奏加强(小节77-80)
{8}8x/1x,8x/1x,8x/1x,
{8}2b/7b,,{16},,{8}7p3[8:1],,87,,1bh[4:1],,4<7[8:1],,1-5[8:1],1,8,,7bh[4:1],,5>2[8:1],,8<5[8:1]/5,8,1-5[8:1],,8w4[8:1]/1,,8b,,,,{8}4,5,3<6[8:1],
||
第七部分:再现部(小节18-15)
2h[8:3]/1,,,7,8/1h[4:1],,{16},,6>3[8:1],,{8}
7xh[8:3]/8x,,,2,1/8h[4:1],,{16},,3,,
||
和声变奏(小节85-88)
{8}2xh[4:1]/4x<7[8:1],,,{16}8b-4[8:1],,,,8<5[8:1]/2>5[8:1],,,,8-2b[8:1]/2-6b[8:1],,,,8/2,,,,
{8}5x/1x,5>2[8:1]/1<6[8:1],,1b/5bpp2[8:3],,E1hf[8:3],,,,,
||
第八部分:发展部II(小节19-93)
1x/8x,,7bh[4:1],,5>2[8:1],,8-4[8:1],8,1,,2bh[4:1],,4<7[8:1],,1>4[8:1]/4,1,8-4[8:1],,1w5[8:1]/8,,1b,,,,{8}5,4,6,
{8}8/7h[8:2],,2,1/3qq4[8:3],,4,,6xh[4:1],,5,,8/7pp4[8:3],,5,,3x,3h[8:5],,{24}2,1,8,7,6,5,{8}4,,,62,{16}6/2b,,3,4,2b,,6,5,7b,,81,,2b-5[8:1]/7b-4[8:1],,,,{8}
||
第九部分:复调对位段落(小节92-805)
,,,5h[8:1]/3,3,7h[8:1]/3,3,1h[8:1]/3,3,5h[8:1]/3,3<6[8:1]*>1[8:1],,,,
{8}8-4[8:1]/7-4[8:1],,87,,,
6-4[8:1],7,2-5[8:1],1,7-3[8:1],8,1>4[8:1],1<6[8:1],,,,5w1[8:1],,5b,,,
3-5b[8:1],3,7-1b[8:1],7,2-6b[8:1],2,5-3b[8:1],5-1b[8:1],,,,8<4[8:1],,
||
和声填充与过渡(小节17-20)
{8}3h[8:4]/8,,,{16}2x>5[8:1],1x,8x,,{4}2/6h[8:3],{16}7x<4b[8:1],8x,1x>4b[8:1],,{8}7-3b[8:1],1-7b[8:1],7b,1b,,4w8[8:1],,,
||
第十部分:尾声准备(小节804-887)
,,1,1,1/7-4[8:1],1,1,1,1/3-6[8:1],1,1,1-3[8:1]*-4[8:1],,1-7[8:1]*-6[8:1],,,,,
3-5[8:1],2,7-4[8:1],8,2-6[8:1],1,8<5[8:1],8>3[8:1],,,,4w8b[8:1],,4b,,,2>5[8:1],,
{8}6h[8:3]/2,,{16}7x<4[8:1],8x,1x,,{4}7/3h[8:3],{16}2x>5[8:1],1x,8x,,{4}2/6h[8:3],{16}7bx-3[8:1],8bx,1bx>3-5<7-1qq4b[4:5],,
{8},,,,,,,,,,,,,,,,,,,,,,,,,,,,,,,,
6h[4:1],,5,7h[4:1]/4,,8,1/6h[4:1],,5,4/7h[4:1],,8,6/1-6[8:1]*-4[8:1],,,,
3h[4:1],,4,2h[4:1]/5,,1,8/3h[4:1],,4,5/2h[4:1],,1,3/8h[4:1],,1,7/2qq7[4:12],
{4},6>3[4:3],,,,,,,,3<6[4:3],,,,,{8}18,18,18,18,
||
最终和弦与结束
,,,,,,,,,,,
