&title=BlazinG AIR
&artist=kanone
&first=0.015
&des=CupLid
&des_5=
&lv_5=14
&inote_5=(150){4},{16},,,,,,,,,,,,5b/3h[16:3],
,,6h[16:3],,,{8}4h[16:3],{16},5h[16:3],,,{8}3,{16}7,2,
6h[16:3],,,3h[16:3],,,{8}5h[16:3],{16},4h[16:3],,,{8}6,{16}2,7,
3h[16:3],,,4h[16:3],,,{8}6h[16:3],{16},5h[16:3],,,{8}4,{16}7,2,
6h[16:3],,,3h[16:3],,,{8}4h[16:3],{16},2,3,1,8,5,6,1,
7x-4[8:1],,,8,{8}7,2,{16}3x<6[8:1],4,,4,{8}3,{16}8,8,
2x-5[8:1],,,1,{8}2,7,{16}6x>3[8:1],5,,5,{8}6,{16}1,1,
{8}7x,6/5,2x,4/3,{16}3,7,1,5,{24}2x,3,4,8x,7,6,
{2}5/1x-5[8:1],{4}1w5[8:1],Cf,
{16}2/8-6[8:1],,,3,{8}8-4[8:1],2,8-5[8:1]/4-2[8:1],3,{4}8,
{16}7/1-3[8:1],,,6,{8}1-5[8:1],7,5-7[8:1]/1-4[8:1],6,{4}1,
{16}3/7-5[8:1],,,1,{8}7-3[8:1],2,3-1[8:1]/7-4[8:1],2,{4}7,
{16}6/2-4[8:1],,,8,{8}2-6[8:1],7,6-8[8:1]/2-5[8:1],7,{4}2,
{16}7-4[8:1],,,8,{8}7-3[8:1],2,7V51[4:1],2,1/7,3,
{16}2-5[8:1],,,1,{8}2-6[8:1],7,2V48[4:1],7,8/2,7,
{16}6-1[8:1],,,5,{8}6-2[8:1],3,4/6V84[4:1],3,4/6,3,
1,{16}6,5,{8}7,{32}1,8,7,6,{8}5,{32}8,1,2,3,{4}4-8[8:1],
{8}5/4,{16}6,6h[8:1],,7,{8}7h[8:1],{16}5,5h[8:1],,,7,6,1,8,
{8}2,{16}3,3h[8:1],,2,{8}2h[8:1],{16}4,4h[8:1],,,2,3,8,1,
{8}7,{16}6,6h[8:1],,4,{8}7h[8:1],{16}3,8h[8:1],,2,4,3,8,1,
{8}6,{16}3,3h[8:1],,5,{8}2h[8:1],{16}6,1h[8:1],,7,5,6,1,8,
{8}3,{16}6,5,{8}7,{16}3,4,{8}2,{16}7,8x,,2,{8}1x,
6/4,{16}3,4,{8}2,{16}6,5,{8}7,{16}2,1x,,7,{8}8x,
2b,3/4,7b,5/6,{16}4b,7,2,8,3b,6,1,7,
{4}4b-8[8:1],4bx-2[8:1]*-6[8:1],4bxw8[8:1],4b,
{8}5/3,4/5h[8:3],{16}7,7,,8,{8}8x>3[8:1],7,6,5,
4,4/5h[8:3],{16}6,6,,8,{8}8x>3b[8:1],7,6,5,
4,4/5h[8:3],{16}6,6,,8,{8}8x-4[8:1],6-1[8:1],8,6,
{16}3,2,4,5,3,2,5,6,4,3,6,7,5,4,6,7,
{8}3x,5/4h[8:3],{16}2,2,,1,{8}1x<6[8:1],2,3,4,
5,5/4h[8:3],{16}3,3,,1,{8}1x<6b[8:1],2,3,4,
5,5/4h[8:3],{16}3,3,,1,{8}1x-5[8:1],3-8[8:1],1,3,
{16}6,7,5,4,6,7,4,3,5,6,3,2,4,5,3,2,
{8}7b,{24}2,3,4,{8}6/5-1[8:1],{24}4,3,2,{8}1-6[8:1],3,4,4,
7/3-6[8:1],6>3[8:1],3-7[8:1],7-5-2-8[4:1],7h[4:1],,,6,
5/1-3[8:1],2,1/8-4[8:1],{16}7,7,{8}8x/4V62[8:1]*<7[8:1],3,,,4/8-6[8:1],
7,8/1-5[8:1],{16}2,2,{8}1x/5>2[8:1]*-3-7[8:1],6,,,1,
{16}3,4,{8}2,{16}6,5,{8}7,{16}2,1/3,,7,{8}8/6,
5/3,{16}6,5,{8}7,2/8,{32}1/8h[8:1],2,3,4,{8}5,{32}8/1h[8:1],7,6,5,{8}4,
{16}2,5,1,6,3,4,1,6,3,5,1,7,{32}2,3,4,5,6,7,8,1,
{8}2/6,8z4[4:1],{16}4,4,,2,{4}2b-6b[16:1],2b,
{1}8h[1:1]/1-7<6-4V28-5-3v1[2:7],
,7h[4:7],
{8},,,,,,,,5/1,
{16}B2,B4,,E3,{8}E4,5/1,{16}B2,B4,,E3,{8}E4,
5/1,{16}B2,B4,,E3,{8}E4,5/1,C,{16}B7,B5,,,4xh[16:1]/8xh[16:1],
,,B7,{8}B5,{16}E7,E6,4xh[16:1]/8xh[16:1],,,B7,{8}B5,{16}E7,E6,
{8}4x/8x,{16}6,5,{8}7,{16}3,4,{8}2,{16}7,8/7,,2,{8}2/1,
6/4,{16}5,3,,4,6,2,{8}8h[8:1],{16}5,5,,4,6,2,
{8}8h[8:1],{16}5,5,,4,6,2,{8}8,4,{16}6/5,5/6,,4/3,
{8}4/3,2,8/7h[4:1],{16}2,2,,4,,6,E4,E8,E2,E6,
,,2/5,4/3,,,{8}7/1,{16}3,4,,8/2,,6,2,4,
{8}5/3,{16}4,6,,5,3,7,{8}1h[8:1],{16}4,4,,5,3,7,
{8}1h[8:1],{16}4,4,,5,3,7,{8}1,5,{16}3/4,4/3,,5/6,
{8}5/6,7,1/2h[4:1],{16}7,7,,5,,3,E6,E2,E8,E4,
,,7/4,5/6,,,{8}2/8,{16}6,5,,1/7,,3,7,5,
{8}6/4,{16}3,4,{8}2,{16}7,8,6-2[8:1],5,{8}7,{4}7b,
{8}3/5,{16}6,5,{8}7,{16}2,1,3-5[8:1],4,{8}2,{4}6b,
{8}8,{16}6,5,{8}7h[8:1],{16}5,6,1-5[8:1],8,{8}3,{4}5b,
{8}1,{16}3,4,{8}2h[8:1],{16}4,3,8-4[8:1],1,{8}6,{4}4b,
{16}2,3,1,8,5,6,1,8,4-8[8:1],6,{8}2,{32}3b,,,,,,,,{16}7,
5,8,1,4,3,8,1,7-3[8:1],5,{8}8,{32}2b,,,,,,,,1,
2,3,4,5,6,7,8,1,2,3,4,5,6,7,8,1,2,3,4,5,6,7,8,{4}Cf/1b-5[8:1],
2b-6[8:1],3b-7[8:1],4bw8[8:1],Cf/B2/B6/E6/E3/B8,
{16}6/2-4[8:1],,,5,{8}5/2-6[8:1],8,{16}6/2-4[8:1],,,5,{8}5/2-6[8:1],8,
{16}6/2-4[8:1],,,5,{8}5/2-6[8:1],8,6/2-4[8:1],7,{16}8/2-6[8:1],8,,7,
{8}2/7-4[8:1],8,7/4-8[8:1],{16}1,1,,2,,,1,7,3,5,
{8}2-5[8:1],1,2/7-4[8:1],8,2V46[8:1]/7v1[8:1],1,{4}2b/7b,
{16}3/7-5[8:1],,,4,{8}4/7-3[8:1],1,{16}3/7-5[8:1],,,4,{8}4/7-3[8:1],1,
{16}3/7-5[8:1],,,4,{8}4/7-3[8:1],1,3/7-5[8:1],2,{16}1/7-3[8:1],1,,2,
{8}7/2-5[8:1],1,5-1[8:1],{16}8,8,,7,,,8,2,6,4,
{8}5,{16}3,4,2,2,6,5,7b,7,{32}8,1,2,3,{8}4/5b,{32}1,8,7,6,
{8}3b/5h[8:1],{16}2,4,3,3,6,5,7b,3,8,8,2,6,5,7,
{8}4bh[8:1],{16}7,5,6,6,3,4,2b,6,1,1,7,3,4,2,
{8}2bh[8:1],{16}6,8,7,7,2,1,3b,7,4,4,6,2,1,3,
{8}8bh[8:1],{16}3,1,2,2,7,8,6b,2,5,5,3,7,8,6,
{2}Cf,{4}5/3,{8}8/1,D6f/A6/E6/A5,
{16}D4f/A4/E4/A3,,,1/B6f,,,{8}8/B4f,{16},2/E6f,,,{8}3b/7b,8b/2b,
{16}1b,1,1,1,1b,1,1,1,1b,1,1,1,1bh[32:1],1h[32:1],1h[32:1],1h[32:1],
{4}1b<1[4:1]*>1[4:1],1<8v3-1v6[8:3]*>2v7-1v4[8:3],{16},,,,,,,,2/8h[16:3],
,,6h[16:3],,,{8}4h[16:3],{16},2h[16:3],,,{8}1,1,
{16}1h[16:3],,,3h[16:3],,,{8}5h[16:3],{16},7h[16:3],,,{8}8,8,
8h[16:3],{16}6,6h[16:3],,4,{8}4h[16:3],{16}2,2h[16:3],,,{8}1,1,
1h[16:3],{16}3,3h[16:3],,5,{8}5h[16:3],{16}1,1b,7,4,8bw4b[8:1],2,6,4b,
E
