&title=Far east nightbird
&artist=猫叉master
&first=0
&des=Far east nightclub
&lv_6=14
&inote_6=(180)
{1},{4},,,{8}4-1[8:1],5,,,8-5[8:1],1,,,3-8[8:1],4,,,7-4[8:1],8,,,
2-7[8:1],3,,,6-3[8:1],7,,,1-6[8:1],2,,,5-1[8:1],6,,,{1}8<1[4:3],8<1[4:4],
8<1[4:7],,{4},{16}68,,,1,5,,24,,{8}7b-1[8:1]*-5[8:1],3b,,,
2h[16:3]/4h[16:3],,15,26,3h[16:3]/7h[16:3],,64,35,
2V48[4:1]/4,,8,7,6-4[8:1]*-8[8:1],,6,,
1h[16:3]/3h[16:3],,84,73,6h[16:3]/2h[16:3],,7/1-5[8:1],82,3b,,
2,2,1,8,7V58[4:1],,8-4[8:1],4-1[8:1],,,,2,8-6[8:1],3-1[8:1],8,3,5,1,
2-5[8:1]/3-7[8:1],,3b/2b,,8h[16:3]/4h[16:3],,37,26,1h[16:3]/5h[16:3],,
26,37,8<5[8:1],4,8,{24}1b,2b,3b,{16}4b/7-3[8:1],,,1,{8}7,1,
{6}28,37,28,{8}3h[8:1],4h[8:1],5h[8:1],6h[8:1],
8V26[4:1],,6,5,4-8[8:1]*-2[8:1],,4,,7-3[8:1],3-5[10:1],,,
{16}2,6,,17,,,{8}2b/6b,3>8[8:1],4,5,6,7<4[8:1],8,1,2,
{16}3,7,2-6[8:1],6,{8},2,,8,7-5[8:1],5-3[8:1],37,,1,8,7-3[8:1]/5-1[8:1],,7b/5b,,
2h[16:3]/6h[16:3],,17,26,{16}35,,6,4,,,73,,{8}6h[4:1],1,3h[4:1],8b,{16}6,4,{8}5,1b/7b,,
2-4[8:1],,6h[4:1],,5-3[8:1],,7,7h[8:1],2-8[8:1],,4h[4:1],,7-3[8:1],,6,6h[8:1],
4-6[8:1],,2-4[8:1],,8,,1-7[8:1]/7,,6V42[4:1],,3,,1,8,7V58[4:1],,
8-4[8:1],4-1[8:1],,,,2,8h[8:1],{16}1,2,{8}3-8[8:1]/7-4[8:1],,37,,5,6,7s3[4:1],,
3,,,,{16}12,,,38,,,74,,{8}8,1,2h[4:1],{24}8,7,6,5,,,2,3,4,{8}5b/6b,,
7-1[8:1],,3h[4:1],,2-8[8:1],,4,4h[8:1],7-5[8:1],,1h[4:1],,4-8[8:1],,3,3h[8:1],
7<4[8:1],,2<7[8:1],,5,,1-5[8:1]/6,,7b>2[8:1]*<4[8:1],,7,,1,8,7V58[4:1],,
8-4[8:1],4-1[8:1],,,,2-5[8:1],8,2/6h[4:1],,1-6[8:1],8,1/7h[4:1],,8,6-8[8:1],4,
2-6[8:1]*-4[8:1],,2b-8[8:1],,7-5[8:1]*-3[8:1],,7b,,1-3[8:1],7V16[4:1],1v4[8:1],7b,,,{16}2,7,{8}2,
1b/8b,,2-4[8:1],4-1[8:1],,5,5-8[8:1],{24}2,3,4,
{8}5,4-1[8:1],{24}7,6,5,{8}4,7h[8:1],6h[8:1],5h[8:1],4,
7,16,4,25,{16}3,4,{8}3,5-8[8:1],{24}2,3,4,
{8}5,4-1[8:1],{24}7,6,5,{8}4,7h[8:1],8h[8:1],1h[8:1],2,
73,,1-4[8:1],4-2[8:1],,5,5-8[8:1],{24}2,3,4,
{8}5,4-1[8:1],{24}7,6,5,{8}4,8h[8:1],7h[8:1],6h[8:1],5,
{8}8-5[8:1],5-7[8:1],3V14[4:1],3,,5,5-8[8:1],{24}2,3,4,
{8}5,4-1[8:1],{24}7,6,5,{8}4,8h[4:1],
{32}1,2,3,4,{24}5,6,7,{16}8,1,
{16}2b/6b,,7,3,6,4,7h[8:1],,2,5,1,6,2h[8:1],,7,3,
6,4,7h[8:1],,2>4[8:1],5,1qq8[4:1],6,{8},,,,
{8}1,38,6,74,{16}5,6,1,8,3h[8:1],,5,4,
1,2,7h[8:1],,5,6,1,8,{8}3q4[4:1],7<4[8:1],,,,
{16}2,5,1,6,2h[8:1],,7,4,6,3,7h[8:1],,2,5,
1,6,2h[8:1],,7>1[8:1],4,6qq5[4:1],3,{8},,,,
{16}1,,3-5[16:1]/7-5[16:1],,,73,,,
2,1,4,5,3h[8:1],,7,8,5,4,6h[8:1],,2,1,4,5,
{8}3-8[8:1],7-4[8:1],3<2[6:8],7z3[48:58],
{1}3b,{16},,,,,,,,,,,,
3b,4,5,6,
{24}27,,,,8h[6:1]/4,,,,7b,,,,5h[6:1]/6,,,,4,,,,7h[6:1]/3,,,,6b,,,,4h[6:1]/5,,,,3,,,,6h[6:1]/2,,,,5b<7[12:1],,,,4,,3,,2,,,,
1h[6:1]/5,,,,2b,,,,4h[6:1]/3,,,,5,,,,2h[6:1]/6,,,,3b,,,,5h[6:1]/4,,,,6,,,,73,,,,
{24}3b/7b,62,5pp8[2:1]/1pp4[2:1],,,,7b/3b,62,
{8}51,,,,,,{16}7q3[8:1]/3,62,51,84,
{8}3/7qq4[8:3],,,,1>4[8:1]*<6[8:1],1,,,
7,8,16,{16}3,4,{8}2-4[10:1],6-2[8:1],2<4[4:1],6,4-8[8:1],,3h[4:1],,
{24}7<1[16:5],26,15,{8}84,,,
7-3[8:1],8,1,2-6[8:1],6-4[10:1],2,8w4[8:1],,
8b,,2V48[4:1],4h[8:1],2,6-4[8:1],7,6-8[8:1]/1h[8:1],,
6/3h[8:1],,21,{16}7-2[8:1],5,{8}6,3-6[8:1],4,
8,8,{24}85,74,36,{8}2/5h[8:1],{24}1,2-6[8:1]/6,37,
{8}48,2,1,{24}85,74,36,{8}2/5h[8:1],{24}1,26,37,{8}4h[8:1]/8,
{24}7,36,25,{8}1/4h[8:1],{24}8,1/5p1[8:1],26,{8}37,
6pp1[8:3],,,,2>5[8:1]*<7[8:1],2,,,
6,5,47,{16}2,1,{8}3-1[10:1],7-3[8:1],3<1[4:1],7,1-5[8:1],,2h[4:1],,
{24}6<4[16:5],37,48,{8}51,,,5p3[16:5]*q7[16:5],
,,,,,
{8}8-5[16:3]/1,27,
{16}3b,2,1-4[16:3],8,7,6,5b/1b,4,3,2,1,8,{4}3b<2[8:3]/7b,,
{8}3,4,5h[8:1],6h[8:1],7h[8:1],8,
16,2,{24}25,36,47,{8}8/5h[8:1],{24}1,8-4[8:1]/4,37,{8}26,8,1,
{24}25,36,74,{8}8/5h[8:1],{24}1,8-4[8:1]/4,73,{8}6/2-6[8:1],8,2,1,
{24}15,48,37,
{2}6bpp1[12:13]/2bpp5[12:13],,,{8},27,{24}1,8,1,{16}8,2,
{32}7b,6,5,4>1[8:1],{4},
{32}8b,7,6,5>2[8:1],{4},
{32}1bqq3[2:1],8,7,6>3[32:13],{4},
