&title=まんこがいっちゃいそう!
&artist=ハクビシン
&first=0.03
&des=ブレークがいっちゃいそう!
&des_5=
&clock_count=4
&lv_5=13
&inote_5=(138){4},{8},,,,,,C,
4xh[8:3]/5xh[8:3],{16},,,,,,4x/5x,E7/E3,4x/5x,E7/E3,{8}4xh[16:1]/5xh[32:1],
{1}5x<4>5[4:7],
{4},,,,Ch[1:1],
E7,{2}E3,
{4},3x/6x<2v4[8:3],,,5xV71[4:1],
1V35[4:1],5V71[4:1],1V35[4:1],
5V71[4:1],1V35[4:1],5,8h[8:1],
{8}6xh[16:1]/5xh[16:1],6xh[16:1]/5xh[16:1],{16}5xh[8:1]/4xh[8:1],,,3xh[8:1]/2xh[8:1],,,{8}5xh[16:1]/6xh[16:1],{16}4xh[8:1]/5xh[8:1],,,2x,
6x,4x,8x,3x,{8}5xw1b[8:1],3bx/7bx,{2}5xs1s5[16:3],
{4}6h[8:1],4/6h[8:1],3/6h[8:1],5/6h[8:1],
6h[8:1]/4-2[8:1],6h[8:1],6h/4p8[8:1]*q8[8:1],4,
1/6h[8:1],3/6h[8:1],6qq1[4:1]/4pp1[4:1],6/4,
{8},6h[8:1],4h[16:1],4h[16:1]/5h[16:1],5h[16:1]/4h[16:1],5h[16:1]/4h[16:1],{4}4b/5b,
{8}2/4,{16}3,5,4,6,3,5,{8}4,{16}7,8,{8}6,5/4,
{16}2,4,3,4,2,7,2,5,{32}3,4,5,6,7,8,1,2,{8}3b,3,
5h[8:1],{16}4,5,3,6,4,6,3-7[8:1],5,{8}3x,{4}3x,
6h[16:7],3h[16:3],{16}2bx/7bx,2bx/7bx,2bx/7bx,2bx/7bx,2bx/7bx,2bx/7bx,2bx/7bx,2bx/7bx,
{8}6bx/3bx-8[8:1],4x/5x,3x/6x-1[8:1],5x,6x/3x-8[8:1],4x,3x/6x-1[8:1],5x,
6/4-8[8:1],3,4/5-1[8:1],6,5/4-2[8:1],3,4/8p4[8:1],7,
8b/1p5[8:1],2,1/8p4[8:1],7,8/1p5[8:1],2,1/8-4[8:1],7,
8/1q5[8:1],2,1/8q4[8:1],7,8/1,{16}8bx,8bx,{8}8bxh[8:1],4bx,
7/2-5[8:1],1,2/7-4[8:1],8,7/2-5[8:1],1,2/7-4[8:1],8,
7/1-4[8:1],2,1/8-5[8:1],7,1q5[8:1],2-6[8:1],1,2,
7<3[8:1],7,2>6[8:1],2,7<3[8:1],7,2>6[8:1],2,
7<3[8:1],7,2,2h[8:1],1,{16}7,4,{8}5-1[8:1],{16}3,6,
{4}A5f,2pp2[16:3],,8qq8[16:3],
,1pp1[16:3],{16},,E8,E7,{8}E6,1/4,
2,{16}3,5,{8}4h[8:1],6,2h[4:1],7,6h[8:1],3,
{2}6-2[8:1]/4-8[8:1],{8}7,6,5h[8:1],3qq5[4:1],
4,6pp4[4:1],5,6,3,3,2/4,5h[4:1]/1h[4:1],
,,2/6,3/7,8V64b[8:1],4V28b[8:1],,,,6xqq1[2:1],
,,,,,,{4}5h[8:1],
5h[8:1],5h[8:1],5h[8:1],
5h[8:1]/4h[8:1],5h[8:1]/3h[8:1],4h[8:1]/2h[8:1],{8}2/4,3/5,
{4}E6f,E4f,{2}6<2v4[8:3],
E
