&title=Catanoph
&artist=An
&first=0.02
&des=Reinhard
&lv_5=13+
&inote_5=(191)
{1},Ch[4:3],2pp5[4:7],,7pp4[4:7],,{2}3q5[4:3],6h[4:1],7p5[4:3],4h[4:1],2q3[4:3],4h[4:1],5p4[4:3],3h[4:1],{8}2>4[8:1],,,1,{2}8p4[8:1],{16}2h[16:3],,,3h[16:3],,,4,,{2}3>1[8:1]/5,{8}7<5[8:1]/8,,,8,{2}1q5[8:1],{16}7h[16:3],,,6h[16:3],,,5,,{2}6<8[8:1]/4,{8}3>8[16:3],1<6[16:3],7<4[16:3],5>3[8:1],{2},{16}1h[16:3]/8,,,2h[16:3],,,3,,{2}2-7[8:1]/4,{8}6<1[16:3],8>3[16:3],2>5[16:3],4<6[8:1],{2},{16}8h[16:3]/1,,,2h[16:3],,,7h[16:3],,,3h[16:3],,,{4}A8/B8/Cf/B4/A4,
{8}2,1-5[8:1],,7,6-1[8:1],,3,2-7[8:1]*-4[8:1],,2,,,{16}5x,4,3,2,8x,7,6,5,{8}2,3-7[8:1],,7,6-1[8:1],,3,4-1[8:1]*-7[8:1],,4,,,{16}8x,7,2x,3,7x,6,1x,2,{8}6,5<8[8:1],,1,2>5[8:1],,8,7<5[8:1]*>1[8:1],,7,,,{16}4x,5,6,7,1x,2,3,4,{8}8,7qq5[8:1],,2,3qq1[8:1],,6,5h[4:1],{16}2x,3,4,5,6,7,8,1,2/6x,5,4,3,2,1,8,7,
{4}6/2x>6[8:3],{8}5,6,7,8,8,1/7,,2-5[8:1],6-1[8:1],2,6,,4/8,,3/7<3[8:3],,4,3,2,1,1,2/8,,7-4[8:1],1-5[8:1],7,1,,2/6,,4>8[8:3]/8,,1,8,7,6,6,5/7,,3-1[8:1],4-8[8:1],3,4,,1/7,,1/5<1[8:3],,8,1,2,3,3,2/4,,7-5[8:1],8-4[8:1],7-3[8:1],8-2[8:1],7,8,,
{8}4x/5x,6,{4}3<6[4:1]/7,6p2[4:1],2>5[4:1],8,7,{8}7-1[8:1],2-6[8:1],7,2,8,7,{4}2/6>3[4:1],3q7[4:1],7<4[4:1],1,{8}2,3,4,5-1[8:1],,5/6,7,7,{4}8/2>5[4:1],5p1[4:1],1<6[4:1],6,5,{8}4-7[8:1],1-3[8:1],4,1,8,1,{4}2/7<4[4:1],4q8[4:1],8>3[4:1],3,{8}4,5,6,7-3[8:1],8,1s5[8:5]/7b,{1},{8}6h[2:1],,,A5,A4,A3,A2,A1,
{2}7x-3-6-4[8:5]/8x,{8}1x,,,2pp6[2:1],{4},7-1[8:1],Cf,,3v8V25[8:5]/8,,7x,{8},6pp2[2:1],,,3-5[8:1],,{2}Cf,2x-6-3-5[8:5]/1x,{8}8x,,,7qq3[2:1],{4},2-8[8:1],Cf,,6v1V74[8:5]/1,,2x,{8},3qq7[2:1],,,6-4[8:1],,{2}Cf,
{8}8>3[8:1]/1,7,6,5,{4}4-7[8:1],1x-3[8:1]/4,1/5x-8[8:1],2x-6[8:1]/5,7-4[8:1]/2,7/8,{8}2/1>4[8:1],8,7,6,{4}5-3[8:1],2x-7[8:1]/5,2/6x-1[8:1],4hx[4:1]/6,{8}5,4/6,{4}3/7,{8}1<6[8:1]/8,2,3,4,{4}5-2[8:1],8x-6[8:1]/5,8/4x-1[8:1],7x-3[8:1]/4,2-5[8:1]/7,2/1,{8}7/8<5[8:1],1,2,3,{4}4-6[8:1],7x-2[8:1]/4,7/3x-8[8:1],5hx[4:1]/3,{8}4,5/3,6/2,1/7,
{8}8x<1[2:3],1x,2x,3h[8:11],{2},,,{8}8<1[2:3],1,2,3h[8:11],{2},,,{8}2,1<3[8:11],8,7h[2:5],{2},,,D6/E6/B5/B6,{8},,,Ch[8:5],{2},6h[4:1],{8}4/5h[8:5],3,2,1-4[8:9],,,,E1,,,,C,,,E5,,{8}5/4h[8:5],6,7,8-5[8:9],,,,E1,,,,E2,,E3,E4,E5,6,7,8,1-4[8:9],,,,E1,,,,C,,,E5,,{8}6h[8:3],,,5h[2:1],,,,4w8[8:5],{1},
{8}2/5h[4:1],3,4,5,4h[4:1]/6q2[8:1],,6,3>8[8:1],,3,5h[4:1],,{16}7x,8,1,2,6x,7,8,1,{8}4h[4:1],5,6,7,3h[4:1]/8<5[8:1],,8,2q6[8:1],,2,7h[4:1],,{16}8x,1,6x,5,1x,2,7,6x,{8}2/5h[4:1],3,4,5,4h[4:1]/6-4[8:1],,6,3-5[8:1],,3,7-4[8:1],,7,2,1,8,1/7,1/7,2/6,2/6,3/5,3/5,4,4,5x,5x,{16}4,6,4,6,3,7,3,7,2,8,2,8,{1}1h[4:3],
{8}1/8b,2,{16}3,4,3,4,{8}3,{16}6<1[8:1],5,6,5,{8}6,,4,3,{16}2V48[4:1],1,2,1,{8}2,8,7,{8}6,1,{16}7,8,7,8,{8}7,{16}4>1[8:1],5,4,5,{8}4,,6,7,{16}8V62[4:1],1,8,1,{8}8,2,3,{8}4,8,{16}7,5,7,5,{8}7,{16}3>8[8:1],4,3,4,{8}3,,5,6,{16}7V51[4:1],1,7,1,{8}7,2,3,{8}4>1[16:3],2<7[16:3],8<5[16:3],6>8[8:3],,,,Ch[8:5],{2},{16}8x-4[8:1],1,2,3,{4}4,
{8}5/7,4/6,3/5,2/4,1,{16}7<4[8:1],8,7,8,{8}7,1,2,3/8,{16}2V48[4:1],1,2,1,{8}2,8,7,5/6,4/7,1/2,3/8,7,{16}6<1[8:1],4,6,4,{8}6,5,4,3,2/5,{16}3,4,5,6,7,8,1,2,{8}3/7,2/6,1/5,4/8,1,{16}2>5[8:1],5,2,5,{8}2,6,7,8/2,{16}7V51[4:1],3,7,3,{8}7,2,3,4>1[16:3],2<7[16:3],8<5[16:3],6>8[8:3],,,,Ch[8:5],{2},{16}8,1,2,3,8-4[8:1],7,6,5,
8>7[2:7],Cf,{8},{1},,,{4},,,{8}8,1,2,3,4h[4:1],,7,6h[4:1],,1,2h[4:1],,{16}8x,7,6,5,1x,2,3,4,{8}1,8,7,6,5h[4:1],,2,3h[4:1],,8,7h[4:1],,{16}1x,2,3,4,1,8,7,6,
{1}1p7[2:7]/5p3[2:7],,,,{8}6<5[2:3],5,4,3,2h[8:3],,,,,,1q5[4:1],,{2},{8}3>4[4:7],4,5,6,7h[8:3],,,,,,8p3[2:1],
