&title=Placebo♥Battler
&artist=OSTER project feat. 音街ウナ
&first=0.03
&des=「この手で感じること」
&des_5=「この手で感じること」
&lv_5=14+
&inote_5=(135){4},{12},,,3,4h[8:1],{24},,{8}5/3,3/5,
6/4,6/4,{12}5/7-4[8:1],5/7,{24},7/8,,,,{8}1h[8:1],{12}E4,B4,,2/8p4[8:1],
{24}7>2[8:1],1,,6x,,,{6}7bx,{24}3xh[8:1],,,4,,,{12}5,4,{24},,{8}6h[8:1],
{24}5,,7,,,4,6,,,{8}3h[8:1],1,{12}8-4[8:1],{24}5,7,,,{8}8,
2-5[8:1],{12}3,{24}8,2,,,{12}6,{24}6,4,,4,{12}5-8[8:1],{24}5,3,,3,
{8}5-2[8:1],4,5,6,{12}2,{24}2,4,,4,{12}5-1[8:1],{24}5,7,,7,
{8}5,8,{12}7-4[8:1]/3-8[8:1],7/3,,{4}7b/3b,{8}1/5,{24}5,,1xh[12:5],
,,,{8}E3,E5,E7,8h[4:1],2,{12}3,4h[24:13],{24},1,
,,,{8}E3,E1,E7,{12}3/5,3/5,{24},2h[24:19],,,,{8}E3,
E5,E7,E1,4h[8:5],{24},,,8,,8h[12:5],{48},,,,,,,,,,,,,,,,E5,
B5,{8}B6,{24}1,2,3,4,,,{8}7h[8:1],{24}5,,5,{8}6,{24}4,,4h[6:1],
,,,5,,3,{12}4,2h[24:1],{24},5,{8}4,{24}6h[12:1],,5,,,,7,,7h[24:7],
,,,{8}8,1,2,{24}7/3<6[6:1],,,,,6<1b[0.3704##0.2963],,,,{8}7h[8:1],
{24},,,5,,3,{12}4,2h[24:1],{24},5,{8}4,{24}6,,5xh[8:3],{8}7,8,
1h[12:1],{48}4x/8x,7x/3x,{6}6x/2x,{48}B2,C,{8}B6,{12}5b/7b,{24}4,6,,6,{12}4,{24}4,2,,2,
{8}3h[8:3],1,8,7,{12}6/4,{24}3,5,,5,{12}7,{24}7,5,,5,
{8}1-3[8:1],4-7[8:1],1,4,{12}8,{24}8,6,,6,{12}4,{24}4,2,,2,
{12}5,{24}5,7h[8:1],,,{8}8,8h[8:1],{24},,,7/1,,6,{12}5,{24}5,4,,4,
{8}3-8[8:1],{24}2/4,,5,{12}3,6h[24:1],{24},1,{12}7,{24}7,5,,5,{12}6,{24}6,4,,4,
{12}5,{24}5,3,,3,{12}4,{24}4,2,,2,{8}1-5[8:1],{24}2/8-4[8:1],,7,{8}1,8b,
,3h[8:1],{12}5,{24}4,6,,6,{8}8-4[8:1],7/1-5[8:1],8/2,1b,
,6h[8:1],{12}5,4/8,{24},,{8}3/7-4[8:1],6/2-5[8:1],7,2b,
,1,8/2,7/3,6h[4:1]/4h[4:1],{24},,,,,,3,2,1,
{6}8/7b,6,{24}5,,,3,{8}4h[4:1],{24}6x,,6x,,,7,5,,,8/6,
1,2,3,,5,{12}4,{24}4,6,,6,{8}5,{24}7/4,,5,{12}6,4,{24},5/3,
,,,{8}4bx/2bx,{24},,{6}1bx/8bx,5bx/7bx-2b[8:1],{12},{4}7b/3b-6b[8:1],
3b/1b<6b[8:1],{24}5b/1b,4,3,2,1,8,7/5xh[8:1],,,,,6/8,1,2,3,7h[8:1]/4h[4:1],,,,,,6,
5,4,3,2,1,8,7,6,{12}5/2,{24}3,4,,,{8}5/2,{24}1,,7,
{8}8,{24}6,,5h[24:7],,,,{8}3xh[8:1],,4/2,3/1-5[8:1],2/8,
{24}1/7h[8:1],,,,,6,{8}4,{24}5,,3,{8}4,{24}2/5,,6,{8}5,{24}7/4,,8,
{8}2h[8:3],3,4,5h[8:1],{24},,,2,,4,{12}3,2/5,{24},1/6h[6:1],
{96},,,,,,,,,,,,{32}1,2,3,4,5,6,7,8,1,2,3,4,{8}5/7b-4[8:1],8/4-8[8:1],{12}7,3,{24},2x,
,,,{8}1/5-8[8:1],7/4,5/3,2h[8:1],1v4[8:1],{12}4>1[8:1],{24}5x,1x,,,{8}6,
{24}7<4[8:1],,8,,,1,7,,,{4}3-7b[8:1],{24}3h[8:1],,,,,5,
{12}6,{24}4,5,,3,{12}4-6[8:1],{24}2,1-3[8:1],,3,{8}4-8[8:1],1-5[8:1],4,1,
{24},,,7,,5x,{12}6x,{24}4,5,,,{8}3b/7-4[8:1],6/4-8[8:1],3/7,{24}2-5[8:1],,1x,
,,,{8}2/7-3[8:1],6,7/4,{12}5>2[8:1],{24}4,6h[8:1],,,{12}5x,7,{24},8h[24:1],
,,{12}1xh[24:1]/7xh[24:1],{24},2xh[8:1]/6xh[6:1],,,,,,3,{12}4,{24}4,2,,2,{12}8,{24}8,5,,5,
{12}6-1[8:1],{24}6,3-5[8:1],,,{8}6,3,{4}8h[4:1],{12}5-2[8:1],{24}7,1,,6,
{4}5,{32}6/1,5,4,3,2,1,8,7,{12}4/6,{24}3,5,2,4,{12}1h[12:1],{24}7,8,,2/6-2[8:1],
,,,8w4[8:1],,6,{8}1,8b,,6,2-5[8:1],1,
2/6,{24}7,,4,{12}8-4[8:1],{24}5,7,,,{4}8-6[8:1]/2b-5[8:1],{24}8/2,,,,,3,
{12}4,{24}4,2,,2,{12}8<5[8:1],{24}8,5-1[8:1],,,{8}4/8,{24}3,,2xh[6:1],,,,{8}8,
{12}7,{24}7,5,,,{8}1/8-5[8:1],7/5-1[8:1],8/3b-6[8:1],2,3,{24}7,,8h[6:1],
,,,{8}5,4/7-3[8:1],6/3-8[8:1],7/2-5[8:1],1,{12}2,7,{24},6/3,
,,4,5h[4:1],,,{8}3,2,1b/6b,{24}5/2,,3,{12}4,{24}4,2,,2,
{12}1,{24}1,3,,3,{12}4,5/2,{24},3,{8}6bx,{24}4/7,,6,{12}5,{24}5,7,,7,
{12}8,{24}8,6,,6,{12}5,4/8,7/3,{8}6b/2h[8:3],5,4,3,
8/1h[8:1],7,6h[8:1]/5-8[8:1],4,5/3-6[8:1],2,{12}3,7,{24},4/8h[6:1],
,,,4,5,6,7qq8[4:1],8,1,2,3,4,{4}7b/5,{8}2-5[8:1],1/3,
8b/2b,{24}7,,4h[8:1],,,5-2[12:1],3,6,4,{12}7h[12:1],5,,8,{24}2,1h[8:1],,,{8}3b,
{24}4/8,,8/4h[8:1],,,2-5[12:1],1,8,7,{12}6/3b,2,{24},7,,,6,4h[8:1],,,{12}8b,
{24}8,5,,5,{12}7,{24}7,1,,1,{12}6b,{24}3,4h[8:1],,,{12}2b,{24}6,5h[24:7],,,{12}6,
7xh[12:1],,4/8,6b/2b,,3b,{24}3,5,,5,{12}4,{24}4,6,,6,
,,{12}4/7h[8:1],{24},2h[6:1],,,8,7,6,5,{12}3/4,2h[8:1],{24},8,,,1,7h[8:1],,,{12}5,
4/6h[8:1],,3-8[8:1],2/4,{24},5,{4}3b,{8}1/7-4[8:1],6/2,
{12}7,3h[8:1],{24},5,,,{6}4/6h[6:1],{96}1,,,2,,,{32}3,4,5,6,7,8,{12}4/1,{24}4,2,,2-5[8:1],
{12}8,8>3[8:1],{24},2,,,{6}8,{24}5bxh[2:1],,,4,,,{8}4,4,
4,{16}6,5,7,4,{8}8bh[8:5],{24},,,,,,,,,,,,1,
,,,,2,,,,{8}3,{2}4/5<4[4:7],
{1},{4},,{24}6xh[4:3],
,,,,A5,,,,{8}E5,
{4}E4,A3,2h[4:3],{12}A1,E1,E8,
{4}A7,6-8[8:1],2,3-5[8:1],
1,8-2[8:1],6,5-7[8:1],
3,2h[12:1],{8}8h[8:1]/1h[24:5],,,7,
{24}5h[12:1]/6h[12:1],,,,,3,{12}4,{24}4,2,,,{8}7/1,7/1,5/6,6/5,
{12}8-3b[12:1]/4-7b[12:1],6/2,{24},8b/4b,,,,,,,{8}4/2b-5[8:1],1/5-1[8:1],2,{24}6,,7x,
,,,{8}8/4-1[8:1],2/5,4/6,7h[8:1],8<5[8:1],1,8/2,
{12}3,{24}4,2>5[8:1],,1,,,8,2,,,{4}6-2b[8:1],{24}6h[8:1],,,,,4,
{12}3,{24}5,4,,6,{12}5-3[8:1],{24}7,8-6[8:1],,6,{8}5-1[8:1],8-4[8:1],5,8,
{24},,,2,,4x,{12}3x,{24}5,4,,,{8}3b/7-4[8:1],6/4-8[8:1],7/3,{24}2-5[8:1],,1x,
,,,{8}2-8[8:1]/7-3[8:1],8,2/7<4[8:1],,7/1,{12}2,3h[8:1],{24},1h[24:1],
,,{12}2xh[24:1]/8xh[24:1],{24},3xh[6:1]/7xh[8:1],,,,,,6,{12}5,{24}5,7,,7,{12}1,{24}1,4,,4,
{12}3-8[8:1],{24}3,6-4[8:1],,,{8}3,6,{4}1h[4:1],{12}4-7[8:1],{24}2,8,,3,
{4}4,{32}2/8,3,4,5,6,7,8,1,{48}4/2,5,6,7,8,1,2,3,4,5,6,7,{12}8/1b-6[8:1],2xh[8:1],{24},,{8}1/3-8[8:1],
4,3/7,{32}6,5,4,3,2,1,8,7,{8}4/6-3[8:1],7/3-7[8:1],6/1,
2-5[8:1],1-6[8:1],2,1,{12}4,{24}4,8,,8,{8}1-5[8:1],7>2[8:1],
1,7,{12}3-8[8:1],{24}3,4,,4,{8}3,6,{12}7/1,{24}2,4,,4,
{8}3,6,{12}7/5-2[8:1],8/4,{24},,{8}7b/5b,{24}1,,1-6[8:1],{12}3,3,{24},1b/8b,
,,,7,,7,{12}4-7[8:1],{24}4,5,,,{8}4b/2b,{24}8,,8,{12}6,{24}6,2,,2,
{12}8,{24}8,4h[8:1],{96},,,,,,,,{32}7,6,5,4,3,2,1,8,{8}7/3b,1/5,{24}3,4,2,7,5,6,
2,4,3,6,5,7,{12}2-5[8:1],{24}8,1,,7,{8}2b,6-1[8:1],{12}4/7,{24}5,6,,,{12}3,
{24}2,8,,1/7h[8:1],,,{12}2,3/1,4/8,{24}7,5,,,{8}6/B4/E4,2/B6/E6,
8/E2/B2,5/B8/E8,{12}6/4,3/7,{24},8/1,,,2,6,,,{8}3/E5/B4,7/C,
1/E7/B6,4/B2/E3,{12}5/3,2/6h[6:1],{24},,5,7,1,4,3,7,5,6,1,4,2,8,
{4}3bh[4:1],{48}1b,8,7,6,5,4,3,2,1,8,2/7pp8-5b[3:2],6/3,{2}5/4,
{32},,,,,,,,E2,B2,B3,E4,{8}A4f,
E
