&title=Chartreuse Green
&artist=t+pazolite
&first=1.45
&des=↓Kin↑ha←ku↓
&lv_5=14
&inote_5=(180)
{1},
{8}4,4h[8:2],6,7,3,3h[8:1],8,8,1-3[8:1],,1,7-5[8:1],,7,2h[8:3],,,
{8}7,3,6,2,8,1,7,
{8}2,2,6,6pp5[8:3],,,C,,,
{8}2-4[8:1],2,5,6-1[8:1],6,3,3,2-5[8:1],,
{8}2,8-4[8:1],,8,2,3V51[8:3],,
{8}7,7,6,6,5,2,3,4-8b[8:3],,,,,
{8}7x,6,6,
{8}3hb[8:2]/5hb[8:2],,,,4h[8:2]/7h[8:2],,,,6pp1[8:4]/3,,
{8}4,4,,2,2-4[8:1],,2,7,1,6,2,5,3,4,2,2h[8:2],5-7[8:1],5,,
{8}1,2,6x,
{8}2b/5b,3,18,
{16}3,4,
{8}2,2,7,7h[8:2],3,3h[8:2],5,5h[8:2],,
{8}4,3,2h[8:1],C,
{8}3,4,6,5,
{16}2,4,3h[8:2],,7,,7h[8:6],,,,,,,,,,,,1b,,,,
{8}C,,C,,C,,B6,,B7,,B8,,B1,B2,,C,B7,,B8,,E1,,E2,,B2,,E3,,B6,,C,,
{8}1,8,7,7h[8:3],2,,3,,46,,
{8}35,3h[8:3]/5,,7,7,18,,
{8}2hx[8:2],,6,6,,45,,73,6,52,1x,8hx[8:1],
{32}1b,2,3,4,8b,7,6,5,,,,,
{16}18,,2,,3/5,,6,4,7-5[8:1],,7,,8-4[8:1],,8,,
{16}6h[16:3],,,2,,,37,,4>8[8:1]/8,,,,47,,,,
{16}6,,52,,3,,47,,
{16}6V47[8:1],,3,,6,,2,,1b-5[8:1],,,,
{16}1,,7^4[8:1],,,,7,,3-8[8:1],,2,,3b/5,,,,
{16}26,,7,,18,,3,4,2,,1,,
{16}7x,,,64,,,35,,3qq4[8:3]/5,,,,C,,,,
{16}6,,6,,7,,7,,3x/4x,,2,,6x/5x,,7,,
{16}3,4,1,8,5,6,2,7,1h[8:1],,
{32}7,2,7,2,7bhx[32:4],,,,,,,,
{32}1b/8b,27,36,45,,,,,
{16}2x/7x,,3,5,1-5[8:1],,1,,8-6[8:1],,8,,
{16}2V48[8:2],,,5,2,,7-5[8:1],,7,,,,1b,,,,
{16}46,,7,,35,,2,,18,,18,,27,,36,,
{16}4bp1[8:2]/5b,,,,7,,7h[8:2],,,,
{16}3x,,27,,45,,1b/8b,,
{16}3,4,2,,7b,8,6,8,7-4[8:1],,2x,,2x,,
{16}1b-5[8:1],,,8,1,,7b,,7xv4[8:1]*-5[8:1],,,,7b,,,,
{16}2,,3,,47,,47,,5,,6,,2x/7x,,3x/6x,,1bh[16:4]/8b,,,,
{16}7,,26,,,,3,,36,,4,5,4b,,2xV46[8:2],
{16}6,6,,,7,,8x,,2x,1,3h[8:1],,8b<4[8:2],,,
{16}2,,3qq8[9:4],,,7x,,,6,,6-4[8:1]*-3[8:1],,,,
{16}6b,,,2x,8bx,3,7,4V28[8:2],
{16}6,,7x-4[8:1],,
{16}8,,7,,,,
{16}2,,35,,,46,,,57,,46,,35,,
{32}1,2,3,4,5,6,7,8,
{16}1h,7h,4h,2h,8h,,,,14,14,,2xV47[8:2],,,
{16}8,,8x-5-8[8:2],,,8,,,4-1[8:1],,4,,,,6h[16:3],,,2,
{16}1,1,1,1,
{16}2x/8x,,3x/7x,,46,,5-7[8:1],,,,
{16}2-4[8:1]/5,,1,,2/8-4[8:1],,1,,3-6[8:1]/8,,2,,37,,8b,,2,
{16}3,6,5-1[8:1],
{16},2b,,2b,,4,3,2x-5[8:1],,C,,,
{16}7,,7,,,1/8-5[8:1],,,2,,3-8[8:1],,,,
{16}7,,,5,3,6,2,7,
{16}1h[8:1],,8-3[8:1]*-6[8:1],,
{16}2,,8,,,,
{16}45,,36,,,2h[16:3]/8,,,6,,37,,48,,
{16}2b,,3,4,3,4,3,,2b/7b,,6,5,6,5,6,,1b/8b,,,4h[16:1],5,,2x/7x,,
{32}1b/8b,27,36,45,,,,,4b/5b,36,27,18,,,,,
{16}1,8,2,7,1,8,2,7,
{32}1,2,3,4,8,7,6,5,2,3,4,5,7,6,5,4,1b,,,,,,,,
{8}3,4,2,7,5,6,1b<1[8:16]*>1>1[8:32],,,,,,,,,,,,,,,,,,,,,,,,,,,,,,,,
{8}6h[8:2],,,,5h[8:2],,,,3,,,4,,,54,,
{16}1h[16:2],,,8,,,27,,
{8}3,3,6,6,4-8b[8:1]/5-1b[8:1],,,,,,2x/7x,,
{8}45,,45,,36,,36,,2-4[8:1],,2,6-8[8:1],,6,1,1,
{8}1x/8x,,27,,63,,45,,
{16}63,,,52,,,27,,,,18,,7,,6,,
{16}25,,3,4,3,,18,,47,,6,5,6,,18,,
{16}2,5,3,4,3,,47,,6,5,6,5,6,,8b,,
{16}1,2,3,4,5,6,7,8,
{32}1,2,3,4,5,6,7,8,
{32}1,2,3,4,5,6,7,8,1/5b,,,,
{16}4,5,3,6,2,7,1x-5[8:1]/8x-4[8:1],,,,
{64}1b/8b,Cf,,,,,,,,,,,,,,,
{8}2>5[8:1]/6,1,2-6[8:1]/8,7,2,8^5[8:1],1,
{24}1,2,3,4-8b[8:1],,,6-1[8:1],,,4,,,6,,,
{24}2^5b[8:1],,,3,,,2b/5b,6,7,8-4[8:1],,,3,,,
{24}1-5[8:1]/8,,,2,,,1/7^4[8:1],,,8,,,4/7-2b[8:1],,,2,,,
{24}2/A7f,3,4,5-1[8:1],,,7,,,6,,,6-4[8:1],,,,,,6b/2b,,,3bh[8:2],,,,,,
{24}7-5[8:1],,,2,,,4/7v4b[8:1],,,2,,,7,,,8,1,2,3V52[8:1],,,7,,,8-4[8:1],,,1,,,8,,,
{24}2b-6[8:1],,,7,,,2^5[8:1],,,7,,,2/5x,6x,7x,8x,,,
{24}1-5b[8:1],,,2,,,1/6-8[8:1],,,7,,,4/6,,,5,,,37,,,
{16}2,6,2,6,3,7,3,7,
{32}3,4,5,,7,6,5,,1,2,3,4,8,7,6,5,
{24}1b-5[8:1],,,2,,,7-3[8:1]/1,,,8,,,2b-8[8:1]/7,,,1,,,2/5-7[8:1],,,6,,,
{24}5b/1b,2,3,4,,,8,,,8h[8:1],,,
{32}4,3,2,1,8,7,6,5,
{24}4/8b-5b[8:1],,,,,,8b/2b-6[8:1],,,1,,,2/7^4b[8:1],,,8,,,73,,,
{24}4x,3,2,1q5[8:1],,,7-3[8:1],,,1,,,7,,,
{16}8b,,8hb[8:2],,,,7,,6,,5,,74,,
{8}8b,1,
{16}24,2,
{8}6x,3b/5,7,4b/6b,
{8}2,8,3x/5x,
{16}2bx/4bx,2,
{8}6x,6x,2bx/7bx,18,
{16}4b,5,4,5,3,6,3,6,2,7,2,7,1,8,1,8,
{32}1,2,3,4,5,6,7,8,1,2,3,4,5,6,7,8,1,,,,
{8}8b,8b,,
{8}3h[8:1],5,5,6h[8:1],4,4,36,4,5,5,4,4,6h[8:1],4,3h[8:1],5,
{16}4,4,6,6,3,,45,,
{8}3h[8:2],1,5h[8:2],1,4h[8:2],8,6h[8:2],8,3h[8:2],1,5h[8:2],1,
{8}4,3,3,7,7,,18,,2h[8:2],,7,7,,4-6[8:1],3,2-4[8:1],,
{8}7-4[8:1],,7,1-5[8:1],,18,,3,4,6,5,2b/7b,
