&title=Mou Koi Nante Shinai
&artist=Noriyuki Makihara
&first=0
&des=lowbackpan
&des_5=
&lv_5=13
&inote_5=(105){4},,,,,,,,,,3/4,
3/4,
6/5,{8}6/5,7,8,8/1pp4[8:5],,8h[8:5],
,,,,,8,7,6,
5/4,3pp7[8:5],2,1h[8:5],{4},,,6b/3b,
1-5[8:1],8/1,
7-5[8:1],{8}7-3[8:1],2,7,1qq5[8:3],,1/2,
{4},3,{8}5,4-6[8:1],7,4V28[4:1],
8,4,7,5,,1,{4}1-6[8:1],
1b/2b>5[8:1],2b/1b,8-4[8:1],1/8,
2-4[8:1],{8}2-6[8:1],7,2,8pp4[8:3],,8/7,
{4},6,{8}4,5-3[8:1],2,5V71[4:1],
1,5,2,4,{4}7/5-2[8:1],{8}5,7,
{4}1/7<4[8:1],7/8,3-8[8:1],{16}4/3,{8},{16}7,
{8}1>4[8:1],1,{4}8b,6-1[8:1],{16}5/6,{8},{16}2,
{8}8<5[8:1],8,{4}1b,4-7[8:1]/1-3[8:1],4/1,
8-6[8:1]/5-2[8:1],8/5,1-3v5[4:1],{8}6,7,
{4}8-3[8:1]*-4[8:1],8,7-4[8:1],{16}7/8,{8},{16}1,
{8}3<6[8:1],3,{4}1-7[8:1],{8}1>5[16:3],6,1,8,
1-4[8:1]*-5[8:1],8,{4}1,{8}2-5[8:1]/6-1[8:1],3/7,{4}2b/6b,
{8}4>1[8:1]/8<5[8:1],5/1,{4}8b/4b-8[8:1],{8}4,1w5[8:1],,1b,
{16},,,7,{8}3,{16}4,5,{8}4-1[8:1],3,{16}4/5,{8},{16}6,
{8}2-8[8:1]/6-4[8:1],3,{4}2/6,{8}5-8[8:1],6,{16}5/4,{8},{16}3,
{8}7-1[8:1]/3-5[8:1],6,{4}7/3,{8}3-6[8:1]/7-2[8:1],6/2,{4}7/3,
{8}8v5[8:1]/4v1[8:1],1/5,{4}8/4,{8}6<8p4[4:1],5,4,3,
{4}2-4[8:1]*-5[8:1],2,{8}6v1[8:1],7,{16}4/6,{8},{16}3,
{8}3>8[8:1]/7<4[8:1],8,{4}7/3pp5<2[2:1],{8}1,2,3,4,
{4}5-1[8:1]*-7[8:1],5,{8}8p4[8:1],3,2/8,1,
8q4[8:1],5,6/8,7,{4}5b/8b<5[8:1],{8}8/3,1b,
{4}1b-5[8:1]/4b-8[8:1],1b/4b,3p8[4:1],{8}7,6,
5-1[8:1],4,5b/2,3,6/2,7/4qq8[4:1],,6,
{4}7-4[8:1],7b/1,6q1[4:1],{8}2,3,
4-8[8:1],5,4b/7,6,3/7,2/5pp1[4:1],,3,
{4}2-5[8:1],2b/8,8p6[4:1],{8}4,3,
2-5[8:1],1,6/2b,7-5[8:1],8,3/7q1[4:1],,3/7,
{4}5>2[8:1],5b/7,5-7[8:1],{8}5>7[4:1],2,
{4}5/1,3-6[8:1],3/7-2[8:1],7<4[8:1]/3>8[8:1],
3b-6[8:1]/7b-2[8:1],3b/7b,{8}4/8v5[8:1],7,3/8>6[4:1],4,
{4}8/3,{8}2,7/3-1[8:1],,3-7-1[16:3],7,3,
{4}5-3[8:1],{8}5/1,8-6[8:1],1/4,8-3[8:1],5,8,
{4}6<2[16:3],{8}6/3,4,{4}5p8[16:3],{8}7/5,6,
{4}5w1[8:1],5b,7/4v1[8:1],{8}7/4<2[4:1],8,
{4}4/7,{8}5-7[8:1],3/4,5v8[8:1],1,5>8[4:1]/2,4,
{4}5-7[8:1]/7,{8}5,1,2/8-5[8:1],1/7,8-3[8:1]/2,1,
8/7,6>4-7[4:1],,6/1-3[8:1],8,1-5<7[4:1],8,1/2,
{4}3w7[8:1],3,{8}5b/1bv4[8:1],2,6/1<3[4:1],5,
{4}1/6,{8}7,2/6-8[8:1],,6-2-8[16:3],2,6,
{4}4-6[8:1],{8}4/8,1-3[8:1],8/5,1-6[8:1],4,1,
{4}3>7[16:3],{8}3/6,5,{4}4q1[16:3],{8}2/4,3,
{4}4w8[8:1],4b,2/5pp5[4:1],{8}2/5qq5[4:1],1,
{4}2,{8}1-3[8:1],7/8,1v4[8:1],5,1<4[4:1]/6,8,
{4}3/1-3[8:1],{8}1,6,7/1-4[8:1],8/2,7/1-6[8:1],8,
{4}2/1-3-7[4:1],{8}7<5-1[4:1],8,{4}1>3[8:1],{8}8-5[8:1],1,
{4}8/2w6[8:1],2,1v6[8:1],{8}7/1,8,
{4}4/1-5-3[4:1],{8}1/3-7-5[16:3],2-8[8:1],1,2>8[4:1],,2/4,
,4,{4}5-7[8:1],{8}5/3-8[8:1],4,3-5[8:1],6,
3-7[8:1],7<5-2[16:3],8/3,1,1,8,{32}3/8-4[8:1],7,6,5,{8}4>7[24:5],
8/4,6b,{4},8v3[8:1],{8}2/8,1,
{4}5/8-4-6[4:1],{8}8/6-2-4[16:3],7-1[8:1],8,7<1[4:1],,7/5,
,5,{4}4-2[8:1],{8}4/6-1[8:1],5,6-4[8:1],3,
6-2[8:1],2>4-7[16:3],6/1-7[8:1],8,{4}1,{8}2-8[8:1]/7-5[8:1],3/8,
{4}2-4[8:1]/7v4[8:1],2b/7b,
E
