&title=Lost Umbrella
&artist=稻叶昙-歌愛ユキ
&first=-0.78
&des=yuyu
&lv_5=13+
&inote_5=(274)
{1},,(137){2}5h[2:1],2h[2:1],7h[4:3],,4h[2:1],6h[2:1],3h[4:3],,
{8}5h[16:7]/4,4,4,4,4/7h[16:7],4,4,4,4/6h[16:13],4,4,4,4,4,4,{16}4,,{8}4/6h[16:6],4,4,3,7h[16:1]/2,
(274)
{8}1s5[3:1]/8z4[3:1],,1b/8b,,,,{2}3h[1:7]/6h[1:7],,,,,,,,,,,,,,
{8},,1p8[8:2]/7qq8[8:2],,,,
{8},,17,,2,,13,,8,1,7-4[8:1],,1-5[8:1],,8-4[8:1],,2,,13,,8,,17,,2,8,56,,18,,34,,18,,
82,,7,,86,,1,8,2-5[8:1],,8-4[8:1],,1-5[8:1],,7,,86,,1,,82,,7,1,34,,18,,56,,18,,
24,,8,,17,,2,8,1-4[8:1],,1-6[8:1],,1-5[8:1],,1,,86,,1,,82,,7,1,21,,38,,87,,16,,
75,,1,,82,,7,1,8^5[8:1],,8-3[8:1],,8-4[8:1],,2,,13,,7,,68,,1,7,78,,61,,12,,83,,
{8}7-5[8:1],,8-4[8:1],,7,,6h[4:1],,,,1,,2,,3,,46,,5,,24,,3,,2-5[8:1],,7-4[8:1],,1,,28,,2-4[8:1],,1-5[8:1],,2,,3,,57,,6,,42,,3,,8-4[8:1],,8,,1-5[8:1],,1,,3-8[8:1]/4-7[8:1],,34,,16,,25,,1^4[4:1],,18,,7,,6,,8^5[4:1],,18,,2,,3,,4^1[4:1],,48,,7,,6,,5^8[4:1],,15,,2,,3,,1-5[8:1]/2-6[8:1],,,,7-3[8:1]/8-4[8:1],,,,5h[4:1]/6h[4:1],,,,3h[4:1]/4h[4:1],,,,{4}2/1h[4:1],2,2/7h[4:1],2,2/5h[4:1],2,2/3h[4:1],2,8,17,26,
{8}3,4,3,1,28,,37,,5,6,6,7,18,,27,,3,4,4,5,18,,27,,27,,6,5,6,,47,,47,,3,4,3,,25,,25,,1,8,1,,27,,27,,4,5,4,,36,,36,,7,8,7^4[4:1],,1,,3,,1,2,1^6[4:1],,3,,5,,8,7,8^3[4:1],,6,,4,,2,1,2^5[4:1],,8,,6,,7V51[1:1],,,,,,,,1V73[1:1],,,,,,,,3>4[8:10],,
{8},,,,,,,,,,1b,,,,
{8}28,,5,,17,,4,,{12}3,,3,8,,8,{8}5,,5,6,8>4[4:1],,4<8[4:1],,8>4[4:1],,4<8[4:1],,8>4[4:1],,4-8[6:1],,8,,7-4[8:1],8,7,,1,1,2,2,3-6[8:1],,3,,7-4[8:1],1,7,,2-5[8:1],8,2,,6-1[8:1],4,6,,3-8[8:1],5,3,,1-4[8:1],,7,,1V74[8:3],,1/7h[8:3],,,,,,7,,2,1,2^5[8:1],1,2,,1,8,17,,8,,13,,2,,17,,8p4[8:1]*q4[8:1],,,,26,26,,,3,4,5,,87,,1,,2,,3h[4:2],,,,8b,
{8},2,,13,,8,1,7-4[8:1],,1-5[8:1],,8-4[8:1],,2,,13,,8,,17,,2,8,56,,18,,34,,18,,
82,,7,,86,,1,8,2-5[8:1],,8-4[8:1],,1-5[8:1],,7,,86,,1,,82,,7,1,8-4[4:1],,8w4[8:2],,8b,,,,
24,,8,,17,,2,8,21,,38,,87,,16,,86,,1,,82,,7,1,8-3[8:1],,4-7[8:1],,6-2[8:1],,1,,
78,,1,,82,,7,1,78,,61,,12,,83,,28,,7,,68,,1,7,2-5[8:1],,6-1[8:1],,3-7[8:1],,8,,
8-5[4:1],,2,,1-4[4:1],,7,,8,,8,2,,1,7,,1,,8,,2,,7,7,3-8[4:1],,3,6-1[4:1],,6,2,,
2^5[4:1],,7,,8-5[4:1],,2,,1,,1,7,,8,2,,8,,1,,7,,2,2,6-1[4:1],,6/1-4[4:1]*-6[4:1],,,,,,
8-5[4:1],,2,,1-4[4:1],,7,,8,,8,2,,1,7,,1,,8,,2,,7,7,3-8[4:1],,3,6-1[4:1],,6,2,,
2^5[4:1],,7,,8-5[4:1],,2,,1,,1,7,,8,2,,8,,1,,72,,27,,38,,27,,1-5[4:1]/6,,1b/8,,
{8}7-5[8:1],,8-4[8:1],,7,,6h[4:1],,,,1,,2,,3,,46,,5,,24,,3,,2-5[8:1],,8,7,6,,28,,2-4[8:1],,1-5[8:1],,2,,3,,57,,6,,42,,3,,8-4[8:1],,8,,1-5[8:1],,1,,3-8[8:1]/4-7[8:1],,34,,16,,25,,1^4[4:1],,18,,7,,6,,8^5[4:1],,18,,2,,3,,4^1[4:1],,48,,7,,6,,5^8[4:1],,15,,2,,3,,1v6[8:1]/2v5[8:1],,,,7v4[8:1]/8v3[8:1],,,,5h[4:1]/6h[4:1],,,,3h[4:1]/4h[4:1],,,,{4}2/1h[4:1],2,2/7h[4:1],2,2/5h[4:1],2,2/3h[4:1],2,
8,17,2h[4:1]/6h[4:1],,1-4[4:1],8,8-4[4:1],2,1,28,37,{8}4,8,4,,35,,26,1,5,1,5,1,
1,,37,,48,,2-5[4:1],,7,,6-1[4:1],,3,,4,,35,,35,,4,,6,,,6,1b,,,,{4}74,4,4,4,73,3,3,3,74,4,4,4,73,3,3,3,72,2,26,2,73,3,3,3,74,4,46,4,{6}47,8,1,2,,,
{8}4,,6,,5,,3,,4,,4,6,,1,8,,2b/7b,,2b/7b,,2b/7b,,2b/7b,,
{4},,,,1^4[2:1],,,,8^5[2:1],,,,2qq5[8:11],,,,,,,,7-4[2:1],,,,3-7[2:1],,,,8qq4[8:6],,,,,
{8}1,1,8b,,,,3,,4,,3,,3,4,3,4,4h[8:1],,3,,3,4,3,4,2h[8:1],,4,,4,3h[8:1],,4,3,,3,,4h[8:1],1,2h[1:1]/7h[8:10],,,,,,,,,,,,27,,27,,
{8}1q5[8:1],,6,,8p4[8:1],,3,,{12}2,,2,8,,8,{8}5,,5,7,8>4[4:1],,4<8[4:1],,8>4[4:1],,4<8[4:1],,8>4[4:1],,4-8[6:1],,8,,7-4[8:1],8,7,,1,1,2,2,3-6[8:1],,3,,7-4[8:1],1,7,,2-5[8:1],8,2,,6-1[8:1],4,6,,3-8[8:1],5,3,,1-4[8:1],,7,,1/7pp4[8:5],,1h[8:3]/7,,,,,,2,,7,8,7^4[8:1],8,7,,8,1,82,,1,,86,,7,,24,,3-7[8:1],,3,,84,84,,,6,5,41,,82,,7,,6,,5h[4:2],,,,
{8}1b<1[1:4],,,,,,,,,,,,,,,,,,,,,,,,,,6,,7,,8,,1pp5[1:2],,,,,,,,,,,,,,,,5qq8[8:10],,,,,,,,7-4[4:1],,,,,,,,
{8}8,,17,,2,,1q5[8:1]/3,,1/7p3[8:1],,7,2q6[8:1],,2,8,,1,,82,,7,,8p4[8:1]/6,,8/2q6[8:1],,2,7p3[8:1],,7,1,,4,,53,,6,,5q1[8:1]/7,,5/3p7[8:1],,3,6q2[8:1],,6,4,,
5,,46,,3,,4p8[8:1]/2,,4/6,,5w1[4:1],5,,,,,
{8}2-4[8:1],,1-5[8:1],,8,7,1,6,8,7,1,6,8,7,1,6,
8-4[8:1],,7-5[8:1],,2,1,3,8,2,1,3,8,2,1,3,8,
3-8[8:1],,4-7[8:1],,5,6,8,7,5,6,8,7,5,6,8,7,
5-1[8:1],,6-2[8:1],,3,4,3,2,3,4,3,2,3,4,3,2,
{8}1-5[8:1],,8-6[8:1],,1,,2h[4:1],,1,,8,,7,,6,,5h[4:1],,6,,4h[4:1],,3,,7-4[8:1],,2-5[8:1],1,8,,71,,7-5[8:1],,8-4[8:1],,7,,6,,42,,3,,57,,6,,1h[4:1],,3,,8h[4:1],,6,,7/5p1[8:1],,8,,27,,27,,8^5[4:1],,81,,2,,3,,1^4[4:1],,81,,7,,6,,5^8[4:1],,51,,2,,3,,4^1[4:1],,84,,7,,6,,8p4[8:1],,3,,1q5[8:1],,6,,4p8[8:1],,7,,5q1[8:1],,2,,3,,4,4,3,,4,,2,,4,,3h[4:2],,,,8b,,,,,,,,,,,,,,,E
