&title=妈妈不让我玩Phigros
&artist=我是诚歌
&first=-0.37
&des_7=但是我想玩舞萌DX
&lv_7=忍
&des=但是我想玩舞萌DX
&inote_7=(130)
{4},,
{128}B1/B8,,C,,B6,B3,3xv1[12:1]/6xv8[12:1],,,,,,,,,,,,,,,,,,,,,,,,,,,,,,,,,,,,,,,,,,,,,,,,,,,,,,,,,,
{128}B1/B8,,C,,B6,B3,3xv1[12:1]/6xv8[12:1],,,,,,,,,,,,,,,,,,,,,,,,,,,,,,,,,,,,,,,,,,,,,,,,,,,,,,,,,,
{128}B1/B8,,C,,B6,B3,3xv1[12:1]/6xv8[12:1],,,,,,,,,,,,,,,,,,,,,,,,,,,,,,,,,,,,,,,,,,,,,,,,,,,,,,,,,,
{8}2-4[8:1],8-6[8:1],2-5[8:1],8-5[8:1],2-6b[8:1],8-4b[8:1],,,
{24},,,2/5h[8:1],,,2,1,8,7,6,5,4/8,,,8b,,,2b/6b,,,,,,
{8}5qq5[4:1],5,5-8[8:1],,
{32}8x-4b[8:1],1x,2x-6b[16:1],,,,,,,,,,,,,,
{24}3x,5x,4x,6x,3x,6x,4x,5x,3x<4>3<4>3<4>3-5[8:3],6x,4x,6x,3bx,,,,,,,,,,,,
{8}1<8[8:1],7,1-4[8:1],4<6[16:1],1v3b[8:1]/5v7b[8:1],,,,
{32}7$x,,7$x,7$x,7$x,,7$x,,6x,,6x,6x,6x,,6x,,7$x,,6x,,7$x,7$x,6x,6x,7$bx/6bx,,,,,,,,
{8}4v6[8:1],4,4<1[8:1],,4-8b[8:1]/2-6b[8:1],,,,
{4}4h[8:1]/6h[8:1],2b/8b,4h[8:1]/6h[8:1],2b/8b,
{4}1-4<6[8:1]/8-5<6[8:1],,3v1b[8:1]/7v5b[8:1],,
{32}1x/5x,2x/6x,3x/7x,4xh[32:5]/8xh[32:5],,,,,,7x/3x,6x/2x,5xh[32:5]/1xh[32:5],,,,,,2bx/6bx,3x/7x,4xh[32:5]/8xh[32:5],,,,,,7bx/3bx,6x/2x,5x/1x,,,,,
{4}2qq1-4<5[8:1],,3v1b[8:1]/7v5b[8:1],,
{32}1x,2x,8x,7x,1x,2x,8x,7x,1x,2x,8x,7x,1x,2x,8x,7x,2bx,3x,7x,6x,2bx,3x,7x,6x,2bx,3x,7x,6x,,,,,
{8}3V58[8:1]/5s1[8:1],,,,3v1b[8:1]/7v5b[8:1],,,,
{64}E6,B5,B4,,,,,,,,,,,,,,A3,E4,B4,,,,,,,,,,,,,,E4,B3,B2,E2,1bx,,1bx,,1bx,,1bx,,1bx,,1bx,,E2,B2,B3,E4,4bx,,4bx,,4bx,,4bx,,4bx,,4bx,,
{32}2x>4-8[2:3]/6x>4-8[2:3],,,,,,,,2/6,,,,,,,,B6,E7,,,,,,,B2,E2,,,,,,,3,,,,3,,,,5,,3,,5,,,,2,,4,,3,,,,E2f/E7,B2/B6,B3/B5,E4/E5,,,,,E6/E5,B6/B4,B7/B3,E8f/E3,2xh[8:13]/8xh[8:13],,,,
{32}5bx,5bx,5bx,5bx,5bx,5bx,5bx,5bx,5bx,5bx,5bx,5bx,5bx,5bx,5bx,5bx,5bx,5bx,5bx,5bx,5bx,5bx,5bx,5bx,5bx,5bx,5bx,5bx,5bx,5bx,5bx,5bx,5bx,5bx,5bx,5bx,5bx,5bx,5bx,5bx,5bx,5bx,5bx,5bx,5bx,5bx,5bx,
{64}5bx,B5f,Cf,B1f,A1f,D2f,D1f,
{48}E2f,E1f,A2f,
{32}A8f,E3f,
{16}B3f,E8f,
{12}A3f,A7f,B6f,E5f,
E
