&title=苦若吞沙
&artist=Zeno_P,诗岸
&first=0.07999999
&lv_5=14
&des_5=Hiyori
&inote_5=
(86){8}5V71[8:1]*V31[8:1],6/4,{16}5,,,C,,B4,B3,B2,B1,B8,B7,B6,
{8}B5,{16}4/3,5h[8:1],,4h[8:1],,,,5/4,{8}3h[8:1],{16},4,5,3,
{8}4pp6[8:1],5,{16}4/3,,,3,,4,5,6,7,8,1,2,
{8}3,{16}6,5qq3[8:1],,4,,5h[16:9],,,,,,,,,4b-2[16:1],
3,5b-7[16:1],6,{8}4,5,{16}3V17[8:1],4,7qq3[16:3],6,{4}3h[16:3],
{8}2,{16}8x/1x,7/2,,4/3,,6/5-1[16:1],,7,,5/8,,3,4,3,
{8}1bpp4[16:3],2b/8,{16}1/8,7,6,5,,4/3h[16:1],,5h[16:1]/4-8[16:1],{32},,,,2,3,{16}4h[16:1],
,,1x/8x,2/7,,3/B5,3,3/B7,,6/B4,6,6/B2,{32},,4,5,4,5,{16}4,
8b-6[16:1],7,1b-3[16:1],2,{8}8,1,{16}7V53[8:1],8,3qq7[16:3],2,{4}7h[16:3],
{8}6,{16}5x/4x,3/6,,1/2,,7/8-4[16:1],,6,,8/5,,7,8,7,
{8}5bpp8[16:3],6b/4,{16}5/4,3,2,1,,5/6h[16:1],,4h[16:1]/5-1[16:1],{32},,,,7,6,{16}5h[16:1],
,,8x/1x,7/2,,6/B4,6,6/B2,,3/B5,3,3/B7,{4}Ch[16:3],
{16}6/4,6,6/4,6,6/3,6,6/3,6,6/2,6,{8}6/2,{16},6p5[8:1],7,5>6[16:3],
,6/3,,2h[8:1],,,,3x,,6/3,3/6,6/3,,5h[16:1]/4h[16:1],,,3/5,
3,3/5,3,3/6,3,3/6,3,3/7,3,{8}3/7,{16},3q4[8:1],2,4<3[16:3],
,3/6,,7h[8:1],,,,6x,{32}5,4,5,4,5h[16:5],4h[32:7],,,,,,,,,,,{16}5/4,
4/6,4/7,4/8,8/4,8/3,8/2,8/1,7/2,3/6,7/2,3/6,,2-4[16:1]/6pp4[4:1],1,7,
,6/2b,,3x,,2,,1p8[16:3],,1,8,1/7,6,5,{8}4,
{16}5/E4,5,{8}5/E3,{16}3/E5,3,{8}3/E6,{16}4/6,4/6,{8}6h[8:1]/4h[16:1],{16},1v3[16:1],3<1[8:1],5,
,1/7h[8:1],,,,6h[8:1],{32},,,,4,5,4,5,4,5,4,5bxh[32:5],{4}4bx,
{8}7V15[8:1],{256}5bx-7[16:1],3V15b[8:1],{16},{64},,,{128},{256}7x,5bx-3b[256:15],{16},{64},,,{256},,,3bx,,,,,,,,,,,,,,,{16}A7f,,,,7/2,7/2,{32}4,5,4,5,{16}4,
{8}8<4[8:1],{256}4-7[16:1],1bx>5b[256:31],{16},{64},,,{128},{256}8x,5bx-2b[256:15],{16},{64},,,{128},{16}1bx,A7f,,,,1/6,1/6,{32}3,4h[32:5],{8}3b,
3b>6[8:1],6>4[16:1],{16}3h[8:1],,,2x-5[16:1],1x-6[16:1],,,2,{8}1,8>3[16:1],
8<5[16:1],8-4[16:1],8,{16}8,A4f,{32}3x-6q2[8:1],4x,3x,4x,3,4,3,4,{4}3,
{8}2V84[8:1],{256}4bx-2[16:1],6V84b[8:1],{16},{64},,,{128},{256}2x,4bx-6b[256:15],{16},{64},,,{256},,,6bx,,,,,,,,,,,,,,,{16}A2f,,,,2/7,2/7,{32}5,4,5,4,{16}5,
{8}1>5[8:1],{256}5-2[16:1],8bx<4b[256:31],{16},{64},,,{128},{256}1x,4bx-7b[256:15],{16},{64},,,{128},{16}8bx,A2f,,,,8/3,{8}8/3,7/2-4[16:1],
1/6-8[16:1],5/2,6/1pp5[8:1],{16}3/5,2/6,{4}1/7,{8}6xpp4[16:9],5,
{16}6/4,4,3,3,2-4b[16:1],2,1,1,{32}A2f,,,B5,B6,B7,B8,B1,{16}3bx/Ch[16:3],3,2,2,
1h[8:1]/7h[8:1],,,6xh[16:3]/8>3[16:1],,1,,8<5[16:1]/5-2[16:1],,7x,,8/5w1[16:1],,3/7,,A5f,
,3x-5-1-7[16:3],,1,7-3[16:1],3,{8}6h[16:1],{16},8x-4[16:1],,7/2,,8/5h[8:1],,1-7-2-6-3-5[4:1],
,2/6,,1/5x-1[16:1],6x,7x,8x,1xw5[16:1],,8x/2x,,1,,7h[16:1]/3h[16:1],,,{4}1bV35b[16:1],
Cf/1bV75b[16:1],Cf/1bw5b[16:1],A1f/E2/E1/B1,
{16}8h[8:1]/2h[8:1],,,3xh[16:3]/1<6[16:1],,8,,1>4[16:1]/4-7[16:1],,2x,,1/4w8[16:1],,6/2,,A4f,
,6x-4-8-2[16:3],,8,2-6[16:1],6,{8}3h[16:1],{16},1x-5[16:1],,2/7,,1/4h[8:1],,,{8}8<5[16:1]/1>4[16:1],
2/7,8/1pp1[8:1],8xqq8[8:1],1,8,{16},3h[8:1],4,5,
6h[8:1],7,8,7/1b-5[16:1],,2/8b-4[16:1],,1b>4[16:1],,8b<5[16:1],,1bw5[16:1],,8b,,A1f/B1,
{1}Ch[16:23],
{8},,,,,,,6bh[16:1]/Ch[16:25],
B5,B6,B7,B8,A8,A7,{16},A6,,A5,
,B5,,B6,,B7,,B8,1x,2x,3,4,5,{48}4bx,5,6,7,8,1,2,3,4h[48:7],
{16}5,5,{8}5,{16}6/5,4/5,{8}3/4,{16}2/1,1/8,{8}7/8,{16},2-4[16:1]/6pp4[4:1],1,7,
,2b/6,,3,,2,,6/1p8[16:3],,1,8,1/7,6,5,{8}4,
{16}5/E4,5,{8}5/E3,{16}3/E5,3,{8}3/E6,{16}6/4,6/4,{8}6h[8:1]/4h[16:1],{16},1v3[16:1],3<1[8:1],5,
,1/7h[4:1],{48},,,,,,,,,,,,,,,5b/6,4,3,2,1,8,7,6,5,4,3,2,1,8,7,6,5,4,3,2,1/8h[48:7],{96},,,,,,,,,,,,{32}4,
3,{16}2h[8:1],{32},,5,6,{8}7h[8:1],{32}8,1,{16}2h[16:3],{32},,,,8,7,{16}6,{32}2,3,{16}4,{32}7,6,{16}5,
{32}3,4,{16}5h[8:1],{32},,8,7,{8}6h[8:1],{32}5,4,{16}3h[16:3],{32},,,,5,6,{16}7,{32}3,2,{16}1,{32}6,7,{16}8,
{32}3,4,{16}3h[8:1],{32},,6,5,{8}6h[8:1],{32}4,5,{16}4h[16:3],{32},,,,6,5,{16}6,{32}6,5,{16}6,{32}6,5,{16}6,
{32}3,4,{16}3h[8:1],{32},,6,5,{8}6h[8:1],{32}5,4,{16}5h[16:3],{32},,,,3,4,{16}3,{32}3,4,{16}3,{32}3,4,{16}3,
2<7-3[2:1]/6>3-7[2:1],1,{8}5,{16},,,,,,,,,,,,5-8[2:1]*q4[2:1],
4,{8}6,{16},,,,,,,,,,,,3-1-5[2:1]*v5[2:1],
2,{8}4,{16},,,,,,,,,,,,6V84[2:1]/2V48[2:1],
3,{8}7,,,,,,C,
{16}7-5v4-2[16:7]/2-4v5-7[16:7],1,{8}8,{4}7/2,{16},,,,1,8,{8}2h[16:1],
{16},6-8-4[16:7]*v4[16:7],5,7,,6,,,,,,,,5,4/6,3,
2/5,1,{8}8/4,5-8[2:1]*q2[2:1],4/6,{2}5,
{16},6/4,6,6/4,,3/5,3,3/5,,5/4,5/4,5/4,{64}E1,B8/B1,B7/B2,B6/B3,{16}B5/B4,,,3x-1v8-6[16:7]/6x-8v1-3[16:7],
4,{8}5,{4}6/3,{16},,,,2,7,{8}1h[16:1],
{16},3-1-5[16:7]*v5[16:7],2,4,,3,,,,,,,,4,5/3,6,
7/4,8,{8}1/5,6pp4[16:7]/3qq5[16:7],5/4,{2}6/3,
{16},6/Ch[8:5],6,6,,7,7,7,,8,8,8,{4}8bx>1-5>4[16:1]/1bx<8-4<5[16:1],
{8}E1f,{32}3bx,2x,1bx/8bx,7,6,5,4bx,3,5bx,2,6,1,7,1,2,3,4/5,6,7,8,1,7,2,6,3,5,4,5,
4,5,4,6,3,6,3,6,3,7,2,7,2,7,2,8,1,8,1,8,1,7,1,7,1,7,1,6,1,6,1,6,
{8}1bx,{16}8bV64[16:1]*V24[16:1],7b/1b,,7b/1b,{8}8b,{32}5x,6x,7x,1/8x,2,3,4,5,3,6,2,7,1,8,2,7,
3,6,4,5,4,5,4,5,3,5,4,5,4,5,4,5,2,5,4,5,4,5,4,5,1,5,4,5,4,5,4,5,
{8}8bx,{16}1bV35b[16:1]*V75b[16:1],8b/2b,,8b/2b,{8}1b,{32}5x,4x,3x,2x,1/8,7,6,5/4,3,2,{16}1/8,{48},,,5x,4x,5x,
4x,5,4,5,4,5,4,5,4x,5x,4x,5x,{96},,,{32}3x,2x,3,4,3,1,3,5,3,2,3,4x,6x,5x,6,7,6,4,6,8,6,5,6,
{8}7b,{16}5b-7-1-3-5b[16:3]/4b-2-8-6-4b[16:3],6b/3b,,6b/3b,{8}4b/5b,{32},,,,8x<6v4<5[8:1]*>2v4<5[8:1],1x,7x,2,6,3,7,2,{8}8,
{32},,,,4,6,3,7,2,8,1,7,6,5/4,3,2x,1x>3v5>4[8:1]*<7v5>4[8:1],8x,2,7,3,6,2,7,{4}1,
{32}1,2,8,7,2,3,7,6,3,4,6,5,1,2,8/3,7,1/6,2,3/8,7,6/2,3,4/7,6,5/4,3,2/5,6,7/3,2,1/6,7,
{48}1b/8h[16:1],2,3,4,,,2b/7h[16:1],3,4,5,,,8b/1h[16:1],7,6,5,,,7b/2h[16:1],6,5,4,{96},,,,{32}1/5bx,2,3,4,5/1bx,6,7,8,1/5bx,2,3,4,5/1bx,6,7,8,
1bx,8x,1x,8x,1bx,8x,1,8,1bh,8h,1h,8h,1bh,8h,1h,8h,1bV75b[16:1]*V35b[16:1],8b,1bh,8b,1bh,8bh,1bh,8bh,{4}A1f,
E
