&title=風の丘の東
&artist=BEMANI Sound Team "猫叉Master"
&first=0.065
&des=Noka
&des_5=
&lv_5=13+
&inote_5=(102){4},,{2}1-5[2:3],
7,1,
3,4-8[4:3],
{8}3,6,2,7,{2}1p8[2:1],
6h[4:1],{16}3h[8:1],{8},{16}5,4h[8:1],{8},{16}6,
4,5,3,6,{8}4h[8:1],5,{16}5,4,6,{32}3,4,{8}5h[8:1],4,
{16}6,4,5,3,{8}8,{16}1,7,4h[8:1],{8},{16}6,4h[8:1],{8},{16}5,
2,8,4,6,{8}4h[8:1],{16}5pp4[8:3],4,{2}7h[4:1],
{4}8p6[4:1],2h[48:1],{8},5/6h[8:1],{32}3V15[6:1],4,{16}5,{8}8h[8:1],
3,7h[8:1],{32}5,4,{16}3,{8}8h[8:1],,1/2h[8:1],{32}6V48[6:1],7,{16}8,{8}2h[8:1],
6,3h[8:1],{32}8,7,{16}6,{8}4h[8:1],,6/7h[8:1],{32}5,4,{16}3,{8}6h[8:1],
3<6[8:1],6v3[8:1],1,8,7p2[8:1],2<7[8:1],5,4q6[4:1],
{16}3h[8:1],,,{32}3,2,{4}1pp4[2:1],7h[8:1],6h[8:1],
5h[8:1],4h[8:1]/5pp8[2:1],3h[8:1],2h[8:1],
1h[8:1],8h[8:1]/4-8[12:1],{8}4b,1,7/1-5[8:1],6/5,
8/1,7qq6[8:1],{32}4,3,{16}2,{8}7,8h,7,6/4-8[8:1],1/8,
3/4,2pp3[8:1],{32}8,7,{16}6,{8}2,1h,2,8/6v1[8:1],5/4,
6/2p4[8:1],4p7[8:1],2,8,5,6/8,4pp3[8:3]*<2[8:3],3/1,
{4},,{8}3h[8:1],{16}1>5[8:1],1,{8}7h[8:1],1,
6h[8:1],5,8h[8:1],{32}2,3,{16}4,{8}6h[8:1],{16}1,1,{8}3h[8:1],4,
5>1[8:1]/6p8[8:1],8/1,{4}6/5,{8}1/8h[8:1],{16}2,{32}2,3,{8}4,{16}6,5,
{8}4/2h[8:1],{16}4,5,{8}6/1pp4[8:3]*p6[8:3],2/8,{4},,{32}3,
5,4,6,3,5,4,6,{4}3h[8:1],{8}5h[48:1]/4-2[12:1],{24}3,6h[48:1],,{12}4,7h[48:1],{16},{48},{8}5h[48:1]/4-1[12:1],
{24}3,6h[48:1],,{12}4,7h[48:1],{16},{48},{8}5h[48:1]/4-8[12:1],{24}3,6h[48:1],,{12}4,7h[48:1],,{4}2v4[8:1]/7v5[8:1],
2/7,{8}4h[48:1]/5>2[12:1],{24}3,6h[48:1],,{12}5,7h[48:1],{16},{48},{8}4h[48:1]/5p1[12:1],
{24}3,6h[48:1],,{12}5,7h[48:1],{16},{48},{8}4h[48:1]/5p8[12:1],{24}3,6h[48:1],,{12}5,7h[48:1],,{4}4qq2[8:1]/5pp7[8:1],
5/4,{16}8/1q5[8:1],{8},{16}7,1/6h[8:1],{8},{16}8,
4q8[8:1],3,5,2,{4}4/1h[8:1],{16}2p4[8:1],1,3,{32}7,6,{4}2/5h[8:1],
{16}7-3[12:1],4,5,2,{8}7/8,1b,{2}4h[4:3]/6h[4:3],
{4},{8},{16}2/4,1,{32}1<5[12:1],2,{16}3,7,8,{8}1/3,{16}2,1,
{32}1<5[12:1],2,{16}3,7,8,{8}1/3,{16}2,1,{32}1,2,{16}3,6,7,1/8,{32}1/8,2/7,{16}3/6,1/8,
2qq3[4:1],4,{8}1,2/4,{16}6,5,4h[8:1],{8},{16}4,2h[8:1],{8},{16}1,
2v5[8:1],5,3,7,{4}2/8h[8:1],{16}7>3[8:1],5,6,4,{8}7b/1,8,
{4}1h/7b<3[8:1],{8}1h[48:1],{16}8,1,{32}1q5[12:1],2,{16}3,7,8,{8}2/1,{16}8,1,
{32}1q5[12:1],2,{16}3,7,8,{8}2/1,{16}8,1,{32}1,2,{16}3,6,7,1/8,{32}1/8,2/7,{16}3/6,8/1,
2qq4[4:1],5,{8}1,2/4,{16}5,6,7h[8:1],{8},{16}7,3h[8:1],{8},{16}3,
8,4,7,5,{8}4/6,{32}5/7h[8:1],4,3,2,{8}1,{32}4/2h[8:1],5,6,7,{8}8,{16}4,6,
{2}5w1[8:1],{48}1/8,2,3,4h[8:1],{16},{24},{16}1h,{48}1,2,3,4h[8:1],{16},{24},{16}1h,
{48}1,2,3,4h[8:1],{16},{24},{16}1h,{48}1,2,3,4h[8:1],{16},{24},{16}3,{8}2>6[8:1],6p1[8:1],2,8,
{16}7,6,1,2,6,5,2,3,{32}5,4,{16}6,{32}3,4,{16}2,{32}6,5,{16}7,{32}4,5,{16}3,
6,1,8,3,{8}2/8h[8:1],{16}1,2,7,1,{32}8,1,{16}7,3h,5,4,7h,
{32}5w1[8:1],6,{16}4,{8}5,{4},{48}8/1,7,6,5h[8:1],{16},{24},{16}8h,{48}8,7,6,5h[8:1],{16},{24},{16}8h,
{48}8,7,6,5h[8:1],{16},{24},{16}8h,{48}8,7,6,5h[8:1],{16},{24},{16}6,{8}6h[8:1],{32}8,1,2,3,{8}4h[8:1],{32}1,8,7,6,
{8}5pp4[16:3],{32}4,3,2,1,{4}8,{32}3,4,{16}2,{32}8,1,{16}7,{32}3,4,{16}1,{32}7,8,{16}5,
2,5,4,7,{8}4/8,{16}2,7,3,6,{32}4,5,{16}2,7h,5,6,1h,
{32}8-4[12:1],7,{16}6,{32}2h,3,{16}4,{4}8bpp6[8:7]*pp5[8:7],{1},{2}4qq1[8:5]/7qq4[8:5],
{4},,{16}2h[8:1],{8},{16}4,{4}3h[8:1],
{16}5,3,4,3,2,3,1,3,{32}8<4[8:1],7<3[8:1],{16}6>2[8:1],{8},{4},
1,8b,,{16},,,{32}3,4,
6/5h[2:1],{4},{16},,,{32}8,{2}7qq1[32:43]*<3[32:43],
