&title=CO5M1C R4ILR0AD
&artist=kanone
&first=0
&des=FFFFLaN
&lv_5=14
&des_5=FFFFLaN
&inote_5=
(155){4},,,,,,,,{1}8<8[4:5]*-6-4-2-8[4:5],
{4},,,{16},,{24}E3,B3,B4,
{8}Ch[4:1],{24},,,,,,1,2,3,{16}4,5,,5,,,,,{8}8b-4[4:1],
,,,,,,8,
{16}1,1,,1,{48},,,,,,{24}5,4,5,4,6x,{48},3x,,,6x,,,3x,,,,,,,,,,,,,{16}6,
2,,4,,6,,2,,5,4,6,3,7,2,8,
3x,4,3,4,2,5,2,5,1,6,1,6,8,7,8,7,
1,8,1,8,2,7,3,6,4,5,4,5,3,6,2,7,
{32}1x,2,3,4,5,6,7,8,1x,2,3,4,5,6,7,8,{8}1-5[8:1],8-4[8:1],1,8,
{4}1b-3[8:1]*-6[8:1],1b-7[8:1]*-4[8:1],1bw5[8:1],1b,
{8}3/6,{16}5,4,{8}5,{16}4,5,{8}3/6,5,3/4,4,
3,{16}5,4,{8}6,{16}3,5,1-5[8:1],8,1,8,,,,,{8}4/5,
{16}4,5,{8}4/6,{16}5,5/4,,4,,4,{8}3/5,3,
(310){4}6,{8}4,5,{4}3,{8}5,4,
{4}6,{8}1xw5[4:1],1x,,,,,(155)7b,
{16}1,8,5,6,4,5,{32}3,4,{16}3,5,5,2,2,6,6,
{8}1,{16}7,8,{8}1/7,{16}8,1,{8}2/8,{16}1,2,{4}3/8h[4:1],
{16}1,8,7,6,8,7,6,5,4,3,2,1,{4}8h[#0.3870964],
(310)3b,4,5,6,
7,8,1,1-5[0.1935##0.1935],
(155),{8}5,{16}4,4,{8}6,{16}3,3,{8}8,1,
{16}8,7,6,5,4,3,2,1,8-4[8:1],1,8,1,,,,,{8}5,
{16}4,4,{8}6,{16}4,7,,4,,7,{8}7,3,
4/5-1[8:1],6,5/4-8[8:1],3,5/4>1[8:1],6,{24}4/5,6,7,8,,,{8}5,
{16}4,6,4,5,3,5,{32}1,2,{16}3,5,5,{32}2,3,{16}4,6,6,
{8}3,{16}5,4,{8}6,{16}6,5,{8}7,{16}3,4,{8}2,{24}1,2,3,
{8}4/5-7[8:1],6,5/4-2[8:1],3,5x-1[8:1],{16}5x,5x,,,,,{2}4h[2:1],
{4}8-5[16:1],8,
(310)1,1,{8}5,4,5,4,
{4}6-1[4:1],{8}6,2,,,{4}2,
7,7,{8}3,4,3,4,
{4}2-5[4:1],{8}2,8,,,{4}8,
1,1,{8}8,1,8,1,
{4}7-3[4:1],{8}7,2,,,{4}2,
(155){8}8,8,{16}1,8,1,8,2,,,2,8-4[8:1],8,8,8,
,,,,1-5[8:1],1,1,1,,,,,7-4[8:1],7,7,7,
,,,,1,1,1,1,,7/8,,5/6,,3/4,,1/2,
{24}8,7,6,2,3,4,7,6,5,1,2,3,{12}8,8,8,1,1,1,
{8}5<8[16:1],{24}1,2,3,{16}5b/4b,,,8bxw4b[16:1],{32},,,,8x/Cf/B8,B5/B4/B3,,,,,,,,,,,{1}1>8[3:4],
,4>5[3:4],
{4},,,4h[4:1],
{8}6,5,4,3,6,5,4,3h[4:1],
,4,5,6,,6,5,4,
3,2,1,8,,7,8,1,
,2/7,{16},,2/7,2/7,{8}1-5[8:1]/8-4[8:1],2/7,{4}1/8,
6h[4:3],B6,B7,B8,
3h[4:3],B3,B2,B1,
B4/B5,B3/B6,B2/B7,B8/B1,
2/7,3/6,{2}4-1[12:1]/5-8[12:1],
{8}2h[8:3],8,1,8,7h[8:3],1,8,1,
2h[8:3],1,3,1,7h[8:3],8,6,8,
{16}2/7,2/7,,,4/5,4/5,{32},,,,1,2,3,4,5,6,7,8,1,2,3,4,5,6,7,8,
{4}1b-7[8:1],2b-6[8:1],3b-5[8:1],8b,
{16}3,3,4,2,6,6,5,7h[16:3],,,{8}2,{16}8,8,1,7h[8:1],
,2,6,5,7,4,5,3,6,2,8,1,5,5,3,3,
7,7,8,6,2,2,1,3h[16:3],,,{8}7,{16}4,5,4,5,
6,3,7,2,,,8,4,5,3,4,5,{32}2,3,4,5,6,7,8,1,
{16}6,5,6,7,6,5,4,3h[16:3],,,{8}7,{16}1,1,8,8,
,3,2,1,8-4[8:1],7,6,5,4,3,2,1,8,7,6,5,
{8}7/3,,,5,{16}4/5,,,4x,,,{8}4x,
6,{16}4,4,{8}7,3,{12}8/4,7/3,6/2,{96}1/5,,,4,,,{32}3,2,1,8,7,6,
{16}1b/5x,1,8,8,2,3,4,5/6,,,{8}2,{16}7,6,5,3/4,
,7,4,5,3,3,6,6,1,2,3,4,5/8,7,6,5,
1,1,8,8,1,2,3,4/5h[16:3],,,7,6h[16:3],,,{8}3,
{16}7,7,2,2,8,8,1,1h[90:17],,,8,8,2,3,7,6,
4,3,6,6,1,1,8,3h[16:3],,,{8}7,{16}4,4,5,6,
7,8,1,2,3,4,5,4,5,4,3,2,1/8pp5[2:1],2,3,4,
,,,,,,,,3,,,2,,,{8}1,
{16}8,1,7,7,1,8,2,2,{12}8/3h[16:3],7,6,2/6h[16:3],3,4,
{16}8b,3,2,1,8,7,6,5,7,8,1,2,4,3,2,1,
{8}5,{16}1,1,{8}5,{16}2,2,4,5,6,7,8,1,{8}2,
{16}5,4,3,2,1,8,7,4,5,6,7,8,1,2,3,4,
{8}7/5-8[8:1],6,3/5-2[0.3871##0.0484],4,(310){4}5x-8[8:1],5x-1[8:1],
{16},,,,,,,,(155)6,5,4,3,2,1,8,4,
5,6,7,8,1,2,3/7,4/6,5,4,3,2,1,8,7,6,
2,3,4,5,6-2[16:1],7,8,1,2,,,3,,,5,4,
{8}6,3,{16}7,2,8,1,,,{8}1b,7b,3b,
{12}6,7,8,7/1,2/6,3/5,{4}4-8[16:1],4b,
{16}1,8,7,2,6,2,5,4,3,8,1,2,3,1,8,7,
6,3,4,5,1,8,7,6,8,7,6,5,1,8,7,5,
4,3,2,5,6,7,8,1,{8}4h[2:1],1b,7b,2b,
{16}6b,6,,2b,{8}2,{16}5b,4,{2}6b-2[3:1],
{16}4x,,,4x,,,,,{2}3-8[3:1],
{4}5,5,{8}5h[8:3],{16},,,,1,2,
{8}3/4,7,6/5,{16}4,5h[16:9],,,{8}7b,3b,8b,
{32}1,2,3,4,5,6,7,8,{4}1bw5[8:1]*<1[3:5]*>1[3:5],{2}1b,
,,,4>5[32:33],
{8},,,,2,{16}2,3,{8}4,{16}4,5,
{8}7,2,{48}1/8,2/7,3/6,4/5,,,(25){8}2/1bw5[64:1],
E
