&title=MVURBD
&artist=ETIA.
&first=-0.98
&lv_5=13+
&des_5=DJArisu
&inote_5=
(175){4},{8},,,,,,,,,,,,,,
{4}6h[4:1],5h[4:1],4h[4:1],3h[1:3],
,,,,{1}Ch[4:7],
{4},,,,3h[4:1],
4h[4:1],5h[4:1],6h[1:3],
,,,,B4,
B3,B2,B1,
B8,B7,B6,B5,
4/2,{8}3/4,3,2/4,3,4,2,
2/4,2,{16}2,4,3,4,{8}2,3,{4}4/3,
2/4,{8}4/3,3,4/2,3,,4/3,
4/3,2/1,7/8,6/5,2xh[16:1]/1xh[32:1],8xh[32:1]/3xh[16:1],4xh[16:1]/7xh[32:1],6xh[16:1]/5xh[32:1],
{4}5/7,{8}6/5,6,7/5,6,5,7,
7/5,7,{16}7,5,6,5,{8}7,6,{4}5/6,
7/5,{8}5/6,6,7/5,8/4,{4}3-5[8:1]/1-5[8:1],
1x/3x,6-4[8:1]/8-4[8:1],8bx/6bx,8bx/2bx,
3V14[4:1],4-7-5[4:1],,A5,
{8}7-4[8:1],4-1[8:1],,,,,3,2,
{4}1-3<4[8:1]/7-5>4[8:1],7x/1x,8x-5[8:1]*z4[8:1],8x,
{8}4x/5x-8[8:1]*>3v2<8[8:1],5x/4x,,,{2}1x/8x-5[8:1]*>5[8:1],
{8}3/4,2,5/6,7,4/2,1,5/7,8,
2/8,4,7/1,5,2/8,4/3,7/1,5/6,
{16}5,6,5,6,4,7,4,7,3,8,3,8,{24}2,1,2,1,2,1,
{2}2xV48[8:1],{4}8bxw4[8:1],8x,
B4f/B5/E5/E4/B3/D5/A4/D4/A5/A3,{16}3,5,4,5,2,4,3,4,1,5,4,5,
8,6,5,6,1,5,4,5,2,4,1-5[8:1],4,,,5,6,
{4}7,{16}7,5,7,5,8,1,8,1,4,2,4,2,
{8}3,4x/2x,5x/1x,6,7x/1x-5[8:1],2,{4}8xw4[8:1],
A8f,{16}6,4,5x,4,7,5,6x,5,8,4,5x,4,
1,3,4x,3,8,4,5x,4,7,5,8x-4[8:1],5,,,4x,3,
{4}2,{16}3,4,3x,4,1,8,1x,8,5,6,5x,6,
{8}4x/7x,2/1,3/8,7/4,8/3,8/2,{4}8xv5[8:1]/1xv4[8:1],
8x/1x/Cf,{8}5x/1-3[8:1],5x,6/1-7[8:1],5,1-3[8:1],6,
6/1-7[8:1],6,5/1-3[8:1],5,6/1-7[8:1],5,,,{4}7x/3-5[8:1],
{8}6/3-1[8:1],6,7/3-5[8:1],6,3V17V13[4:3],7,
6/3,5,4,3,4,5,{4}6,
3xv6[4:1]/6x-4[8:1],6x-8-3[4:1],5xpp8[8:9],5x,
{8},3,{4}3,2-5[8:1],2,
B1/E2/B2,{8}E8/B8,E4,E6/B5,E2,,D5/D1,
{16}A6/A2,A3/A7,{8}A8/A4,E4/B4,E8,E2/B1,E6,,,3/8,
{16}2,1,{8}2-6[8:1],1x,{4}2/8-4[8:1],8,
1b-6[8:1]/8b-6[8:1],8b-3[8:1]/1b-3[8:1],{2}8b/1b,
{4}7<3[4:1],{16}3,2,1,8,{4}7x>3[4:1],{16}3,4,5,6,
{8}7x-5[8:1],7x-1[8:1],{4}7x-3[16:3],,2-6[8:1]/6-4[8:1],
6<2[2:1],{8}4,5,6,7,{4}8p2b[4:1],
{8}8x,1q7b[4:1]*>7b[4:1],,1x,,,{4}8-4[8:1]*-2[8:1],
8,{8}3,{16}2,4h,{8}1,1,{4}1-7b[8:1],
1x-3b[8:1],1x-5b[8:1],1x,2-5[8:1],
2/1-5[8:1],1/8-5[8:1],8/1-5[8:1],1/2V48b[4:1],
{8}2b,7V51b[4:1],,7b,,,{4}7-4[8:1],
7/8-4[8:1],8/1-4[8:1],1/8-4[8:1],8/7V51b[4:1],
{8}7b,2V48b[4:1],,2b,{4}8-5[8:1]*-3[8:1],A8/E8/E1/B8,
{8}4/5x,4,6/3,6,2/7,2,8/1,8,
1x/7,1,8x/2,8,4x/6,4,5x/3,5,
{16}4,5,3,6,2,7,1,8,1,8,2,7,3,6,4,5,
4x,5,3x,5,2x,5,1x,5,8x,5x,1x,6x,2x,7x,3x,8x,
{1}4bx>5<4[4:31],
,Ch[1:2],
,,,Cfh[1:2],
{4},,,,,B3,
B2,B1,
B8,B7,B6,B5,
E5,E4,E3,E2,
E1,E8,E7,E6,
E5/D5,E4/D4,E3/D3,E2/D2,
E1/D1,E8/D8,E7/D7,E6/D6,
B3/B4/A4/E4/A3,A1/E2/B1/B2/A2,A8/A7/E8/B8/B7,A6/B6/B5/E6/A5,
{1}B2/E3/B3/Cfh[1:1],
{8}3xh[1:2],,,6,,,{4}6,
{8}7,,,7,,,7,{16}8,7,
{8}6xh[8:13],,,3,,,{4}3,
{8}2,,,2,{16}1-5[8:1],2,3,4,,,,,{8}4/5x,
4,4/6,4,4/7,4,4/8,4,
5/1,5/1,4/8,4/8,3/7,3/7,2/6,2/6,
{16}1,5,1,5,1,5,1,5,{32}1,2,3,4,5,6,7,8,1/5,4,3,2,1,8,7,6,
{2}5V73[4:1]/1V73[4:1],{4}A3f,{32}B4/B3/E4/D4,B5/C/B2,B6/B7/B8/B1,A7/A8/E8/D7/D8/D1,,,,,{1}1bxh[4:7]/6bxh[1:3],
{4},,,,1,
1,1,1,
{8}1bx,B7/E7/B6/A7/D7/A6,A2/E3/B2/B3/A3/D3,8bx,B2/E3/B3/A2/D3/A3,A7/E7/B7/B6/A6/D7,{4}1bxw5[8:1],
A1f,{16}3x,5,4,5,2x,4,3,4,1x,5,4,5,
8x,6,5,6,1x,5,4,5,{8}2x/4x,5x/1x,6x,8x/4x,
{16},,7x,8x,7bx,6,5,4,8bx,7,6,5,1bx,8,7,6,
{8}2<7[8:1],3,4,5>2[8:1],6,7,{4}8w4[8:1],
A8f,{16}6x,4,5,4,7x,5,6,5,8x,4,5,4,
1x,3,4,3,8x,4,5,4,{8}7xh[4:1],{16}8x-4[8:1],1x,{8}2x,8x,
,2x,{16}2bx,3,4,5,1bx,2,3,4,8bx,1,2,3,
{8}7>2[8:1],6,5,4<7[8:1],3,2,{4}1w5[8:1],
A1f,{16}2bx,4,3,4,1bx,4,4,4,8bx,5,5,5,
7bx,6,6,6,8bx,5,5,5,1bx,4,4,4,2bx,3,3,3,
{8}3x/2x,2x/3x,4x/1x,1x/4x,5x/8x,5x/8x,7x/6x,7x/6x,
{16}7bx,8,1,2,6bx,5,4,3,{32}1bx,2,3,4,5,6,7,8,1,2,3,4,5,6,7,8,
{8}1bxh[4:1],,,1-5[8:1],5-1b[8:1],1w5b[8:1],{4}A5f,
{8},,7,8,3/1-4[8:1],2,7/1-6[8:1],8,
{4}1/3,{8}2-5[8:1],5<3[8:3],2,7v4[8:1],,7x,
,3-8[8:1]/4-7[8:1],2/5,3/4,,,{4}3x-6[8:1]/7x-2[8:1],
{8}3bx/7bx,,,1-5[8:1],8,7/1w5[8:1],,1bx,
,8,3/1-4[8:1],2,7/1-6[8:1],8,3/1w5[8:1],2,
{4}1,{8}2-5[8:1],5-2[8:1],2<8[16:1],,,6x<1[2:1],
,8,1,2,3,4,{4}1<6[8:1]/4>1[8:1],
{8}1bpp5[2:1],,,7-5[8:1],8,7-3[8:1]*-4[8:1],,,,1,
6/8-5[8:1],7,2/8-3[8:1],1,6/8w4[8:1],7,
{4}8,{8}7-2[8:1],4,7,5h[4:1],,1pp5[8:3],
,8-4[8:1],7,8,,,{4}E5/B5/B4/B6/B3,
{8}4,3,2/B7/E7/B6,3,6,7,8/B2/E3/B3,7,
6/4,2,3/5,7,6/4,8/1,3/5,1/8,
{16}2,2,8,8,{32}2,3,4,5,{16}7,7,3,3,{32}7,6,5,4,{16}2,2,8,8,
{32}1b,2,3,4,{8}5,{32},,,,8bxw4b[8:1],7x/1x,6x/2x,5x/3x,,,,,{8}8b,,,{4}B4f/E5/B5/A5/E4/A4/D4/B3/A3/D5,
{16}4/5,3,2,1,7/8,6,5,4,{8}1-6[8:1],5,
1-4[8:1],4,1-5[8:1],5,,6,{4}7q3[8:1]/1p5[8:1],
7/1,{8}4-2[8:1],4-7[8:1],,,,3V17V13[4:3],
7,6/3,5,4,3,4,5,6,
{4}3xv6[4:1]/6x-4[8:1],6x-8-3[4:1],5xpp8[8:9],5x,
{8},3,{4}3,2-5[8:1],2,
E3/Ch[1:2],{8}B1,B8,B7,B6,,B5,
{16}E6,E7,{8}E8,E1,E2,E3,E4,
E
