&title=Black MInD
&artist=COSIO
&first=0.02
&des=CupLiD
&des_5=
&lv_5=14
&inote_5=(192){4},,,,4,
4,4,4,
3,3,2,2>8V64-2[4:7],
1,1,1,1,
1,1,1,1,
8,8,8,8,
7,7,6,6/5>2[8:1],
8,3/4<7[8:1],1,8-4[8:1],
8/2-6[8:1],2/7<4[8:1],7/1>4[8:1],1/8,
5/6,{8}6/5,4/7-4[8:1],,5-2[8:1],,8,
,7b,,5/3-8[8:1],,7,{4}7<4[8:1],
3/7,{8}3,5/2-5[8:1],,4-7[8:1],,1,
,2b,,4/6-4[8:1],,3,2-5[8:1],1,
{4}6,{8}7,7/5-1[8:1],,8-3[8:1],,2,
,1b,,3/5q1[8:1],,2,{4}3-8[8:1],
3/4,{8}5,2/4-8[8:1],,1-6[8:1],,7,
,8b,,6/4-8[8:1],,5,6,7,
2,3,4,3,2,3,4,3,
2,3,4<7[8:1],3,2V48[4:1],1,{16},,,,6,
5,4,3,2,1,8,7,2,3,4,5,6,7,8,1,
6,5,4,3,2,1,8,7,6/2,,,3/4,,,{8}1/2,
7/8,6,5,6,7,6,5,6,
7,6,5>2[8:1],6,7V51[4:1],8,{16},,,,3,
4,5,6,7,8,1,2,7,6,5,4,3,2,1,8,
3,4,5,6,7,8,1,2,{32}3/7,6,5,4,3,2,1,8,7,6,5,4,3,2,1,8,
{8}7/3,6-1[8:1],4,2,,3-8[8:1],5,7h[8:11],
,,{4}1,2,3,
4,5b,{16}6,7,6,7,6,7,6,7,
{4}8-4[8:1],1,{12}1/3,4,5,6/8,{24},,,,{8}2/1,
{16}7,8,{8}6,{16}3,4,2,5,3,4,{8}2h[4:1],1,
8,{16}3,3,{8}5,{16}2,2,{8}6,{16}1,1,{12}6h[12:1],2h[12:1],4h[12:1],
{8}7,{16}8,8,{8}4,{16}7,7,{8}3,{16}6,6,{8}2h[8:1],4h[8:1],
{16}3,5,4,5,2,6,5,6,{8}4h[8:1],{16}7,7,{12}5h[12:1],8h[12:1],2h[12:1],
{8}4,{16}2,1,{8}3,{16}6,5,7,4,6,5,{8}7h[4:1],8,
1,{16}6,6,{8}4,{16}7,7,{8}3,{16}8,8,{12}4h[12:1],7h[12:1],2h[12:1],
{8}5,{16}1,1,{8}5,{16}2,2,{8}6,{16}3,3,{8}7h[8:1],5h[8:1],
{16}6,4,5,4,7,3,4,3,{12}6,7,8,2,3,4,
{8}7-5[8:1],{16}5,5,{8}7-1[8:1],{16}4,4,{8}7-4[8:1],3-8[8:1],7,3,
5,{16}6,8,{8}6,{16}3,1,{8}3,8,{12}7h[12:1],3h[12:1],5h[12:1],
{8}1-7[8:1],{16}6,6,{8}1-3[8:1],{16}4,4,{8}1-5[8:1],{16}5,5,{8}1,7,
{16}6,4,6,4,5,3,5,3,{8}4h[8:1],{16}2,2,{12}6h[12:1],1h[12:1],7h[12:1],
{8}2-4[8:1],{16}4,4,{8}2-8[8:1],{16}5,5,{8}2-5[8:1],6-1[8:1],2,6,
4,{16}3,1,{8}3,{16}6,8,{8}6,1,{12}2h[12:1],6h[12:1],4h[12:1],
{8}8-2[8:1],{16}3,3,{8}8-6[8:1],{16}5,5,{8}8-4[8:1],{16}4,4,{8}8,2,
{16}3,5,3,5,4,6,4,6,{8}5h[8:1],{16}8,8,{12}3h[12:1],7h[12:1],1h[12:1],
{4}5bV38[8:3],1,{8}2,2,,3V51[2:1],
,7,{4}7,{8}8,8,,7V51[8:3],
,1,{4}1,{8}3,3,,4/8V64[4:1],
,4v7[4:1],{4}4,{8}3,2,1,2,
{4}3b/7-3-5[8:3],1,{8}2,2,,3-8[8:1],
,7-5[8:1],6,2-5[8:1],3,6-1[8:1],{4}7,
{16}3,4,5,6,7,8,1,2,7,6,5,4,3,2,1,8,
{8}7/3-5[8:1],2,7-4[8:1],8,1-5[8:1],2,{4}6>7[2:1],
{8}7,,,,,,,5b,
,7b/3b,{4}7b/3b,{8}6/4,8h[4:1]/2h[4:1],{24},,,,,,{12}7,
5,6,3,4,2,7,5,6,3,4,2,
{10}6h[10:1],3h[10:1],7h[10:1],2h[10:1],8h[10:1],3h[10:1],5h[10:1],2h[10:1],6h[10:1],1h[10:1],
{4}7-4[8:1],7/8,{8}2,2-4[8:1],5,2-8[8:1],
7,2,{4}6h[4:1],{8}5,4h[4:1]/7h[4:1],,,{4}8/2-5[8:1],
2/1,{8}7,5h[4:1]/7-1[8:1],,7-5[8:1],
4,7,{4}3h[4:1],{8}4,5/2,{4}6/1<2[2:1],
{8}7h[2:1],,,,,,,4b,
,6b/2b,{4}6b/2b,{8}3/5,1h[4:1]/7h[4:1],{24},,,,,,{12}2,
4,3,6,5,7,2,4,3,6,5,7,
{16}4,8,4,8,3,7,3,7,2,6,2,6,1,5,1,5,
{4}2-5[8:1],2/1,{8}7,7-5[8:1],4,7-1[8:1],
2,7,{4}3h[4:1],{8}4,5h[4:1]/2h[4:1],,,{4}1/7-4[8:1],
7/8,{8}2,4/2>1[8:3],,2/5h[8:3],
{16},,,,,,,,2,3,4,5,8-3-5-7-1-4-6-2[4:7],7,6,5,
{1},{4},,,8,
{16}A8,E1,A7,E8,A6,E7,A5,E6,A4,E5,A3,E4,A2,E3,A1,E2,
{4}C,7/1,{12}A8/B8/A1/B1,B7/A7/A6/E7/A2/B2/E3/A3,B6/B5/B3/B4,D6/A5/D4/A4,,,3h[12:1],
5h[12:1],4h[12:1],6h[12:1],4h[12:1],5h[12:1],2h[12:1],4h[12:1],3h[12:1],7h[12:1],5h[12:1],6h[12:1],
3h[12:1],4h[12:1],2h[12:1],7h[12:1],5h[12:1],6h[12:1],1h[12:1],4h[12:1],2h[12:1],6h[12:1],3h[12:1],5h[12:1],
{16}A3,E3,A4,E4,A5,E5,A6,E6,A7,E7,A8,E8,A1,E1,A2,E2,
{4}C,5b/3b,{12}D6/A5/D4/A4,B6/B5/B3/B4,B7/A7/A6/E7/A2/B2/E3/A3,A8/B8/A1/B1,{24},,,,{8}5/7,
{16}2,1,{8}3,{16}6,5,7,4,6,5,{8}7h[4:1],8,
1-3[8:1],{16}6,6,{8}1-5[8:1],{16}7,7,{8}1,{16}8,8,{12}4h[12:1],7h[12:1],2h[12:1],
{8}5-3[8:1],{16}1,1,{8}5-7[8:1],{16}2,2,{8}5,{16}3,3,{8}8h[8:1],5h[8:1],
{16}7,4,5,4,8,3,4,3,{8}5h[8:1],{16}2,2,{12}4h[12:1],1h[12:1],7h[12:1],
{8}5,{16}7,8,{8}6,{16}3,4,2,5,3,4,{8}2h[4:1],1,
8-6[8:1],{16}3,3,{8}8-4[8:1],{16}2,2,{8}8,{16}1,1,{12}5h[12:1],2h[12:1],7h[12:1],
{8}4-6[8:1],{16}8,8,{8}4-2[8:1],{16}7,7,{8}4,{16}6,6,{8}1h[8:1],4h[8:1],
{16}2,5,4,5,1,6,5,6,{12}3,2,1,7/8,6,5,
{8}4/2-4[8:1],{16}6,6,{8}2,{16}7,7,{8}2-5[8:1],{16}1-6[8:1],8,{8}2,1,
3,{16}2,4,{8}1,{16}6,5,{8}8,3,{12}2h[12:1],6h[12:1],4h[12:1],
{8}8-2[8:1],{16}3,3,{8}8-6[8:1],{16}4,4,{8}8-4[8:1],{16}2,2,{8}8,2,
{16}3,5,2,6,3,5,2,6,{8}4h[8:1],{16}7,7,{12}3h[12:1],8h[12:1],2h[12:1],
{8}7-5[8:1],{16}3,3,{8}7,{16}2,2,{8}7-4[8:1],{16}8-3[8:1],1,{8}7,8,
5,{16}2,4,{8}1,{16}6,5,{8}8,1/2,{12}7h[12:1],3h[12:1],5h[12:1],
{8}1-7[8:1],{16}6,6,{8}1-3[8:1],{16}5,5,{8}1-5[8:1],{16}7,7,{8}1,7,
{16}6,4,7,3,6,4,7,3,{8}5h[8:1],{16}2,2,{12}6h[12:1],1h[12:1],7h[12:1],
{8}3-5[8:1],{16}8,8,{8}3-8[8:1],{16}7,7,{8}3V51[4:1],{16}6,6,{8}3,7,
8V62[4:1],7,3,4,3-1[8:1],{16}8,8,{8}3-5[8:1],{16}6,6,
{8}3,{16}8,8,4,7,5,6,2,7,4,5,{8}3h[4:1],4,
{16}6,7,8,1,4,5,6,7,2,3,4,5,8,1,2,3,
{8}4/6-4[8:1],{16}1,1,{8}6-1[8:1],{16}2,2,{8}6V48[4:1],{16}3,3,{8}6,2,
1V37[4:1],2,6,5,6-8[8:1],{16}1,1,{8}6-4[8:1],{16}3,3,
{8}6,{16}1,1,5,2,4,3,7,2,5,4,{8}6h[4:1],5,
{16}3,2,1,8,5,4,3,2,7,6,5,4,{32}1,8,7,6,5,4,3,2,
{4}1/5-1[2:1],,,7b,
{12}8/1,8/1,8/1,{96}2,,,3,,,{32}4,5,6,7,8,1,{2}7s3<4-8[1:1]/2z6>5-1[1:1],
E
