&title=Exitium
&artist=Laur
&first=0.7
&des=Jun
&clock_count=4
&lv_5=14+
&inote_5=(260)
{32}8,7,6,5,,,,,1,2,3,4,,,,,8,7,6,5,,,,,1,2,3,4,5,6,7,8,
1,2,3,4,5,6,7,8,{16}1,,3,,5,,7,,1,,,,
4b/5,,,,8,,,,2,,,,1,,,,
5,,,,4,,3,,2,,,,3,,,,
5b/4,,,,2,,,,3,,,,4,,,,
1,,,,5,,6,,8,,,,7,,,,
4b/5,,,,8,,,,2,,,,1,,,,
5,,,,4,,3,,2,,,,3,,,,
5b/3,,,,2,,,,4,,3,,4,,2,,
1b/5,,,,6,,6,,8b,,7,,7,,,,
2,,2,,2,,2,,,,1,,1b/2b,,,,
12,,,,34,,,,56,,,,5,,5,,
5,,5,,5,,5,,,,6,,5b/6b,,,,
56,,,,78,,78,,78,,,,{12}8,1,2,
{16}3,,,,4,,4,,,,3,,3b/4b,,,,
5,4,5,4,5,4,5,4,5,4,5,4,5,4,5,4,
{1},
{4}7-4[8:1]/8b,3-8[8:1]/7b,5-1[8:1]/3b,5b
,
{8}6/2-6[8:1],,2/8,,5/1-5[8:1],,1/8-4[8:1],,
3-8[8:1],,7-3[8:1],3,3,,1,,
3/7-3[8:1],,7/1,,4/8-4[8:1],,8/1-5[8:1],,
6-1[8:1],,2-6[8:1],6,6,,8,,
7/3-7[8:1],,3/1,,6/2-6[8:1],,2/1-5[8:1],,
4-1[8:1],,8-4[8:1],4,4,,2,,
1-5[8:1]/8,,12,,2-6[8:1],8-4[8:1],2<7[8:1],8,
2,,56,47,,78,16,,2/6-2[8:1],,6/4,,1/5-1[8:1],,5/4-8[8:1],,
7-4[8:1],,3-7[8:1],7,7,,5,,
7/3-7[8:1],,3/5,,8/4-8[8:1],,4/5-1[8:1],,
2-5[8:1],,6-2[8:1],2,2,,4,,
3/7-3[8:1],,7/5,,2/6-2[8:1],,6/5-1[8:1],,
8-5[8:1],,4-8[8:1],8,8,,6,,
5-1[8:1]/4,,56,,6-2[8:1],4-8[8:1],6>3[8:1],4,
6,,1,28,,8,17,,
{1}2qq7[2:1]/6qq3[2:1],
7s3[2:1]/2z6[2:1],
{4}7-5[8:1],8-4[8:1],1-3[8:1],,
5w1[4:1]*w1[4:1]*w1[4:1],,,,
7<7[2:1]*>7[2:1],,,,
3V51[4:1]*V15[4:1],,,,
2-4[8:1],,1-5[8:1],,8-4[8:1],,7-5[8:1],,
{16}1,8,1,8,1,8,1,8,1,8,1,8,1,8,1,8,1,8,1,8,1-5[8:1],8,1,8,1,,,,,,,,
7,2,7,2,7,2,7,2,7,2,7,2,7,2,7,2,7,2,7,2,7-3[8:1],2,7,2,7,,,,,,,,
3,6,3,6,3,6,3,6,3,6,3,6,3,6,3,6,3,6,3,6,3-7[8:1],6,3,6,3,,,,,,,,
5,4,5,4,5,4,5,4,5,4,5,4,5,4,5,4,5,4,5,4,5-1[8:1],4,5,4,5,,,,,,,,
{16}1v8[2:1],,,,,,,,,,,,,,,,
7p2[2:1],,,,,,,,,,,,,,,,
3p6[2:1],,,,,,,,,,,,,,,,
5v4[2:1],,,,,,,,,,,,,,,,
2p3[2:1],,,,,,,,,,,,,,,,
6p7[2:1],,,,,,,,,,,,,,,,
4p5[2:1],,,,,,,,,,,,,,,,
{4}1>3[8:1]/8<6[8:1],1-5[8:1]/8-4[8:1],18,,
{4}4-2[8:1]/5,5,4-1[8:1]/5,5,
5-7[8:1]/4,4,5-8[8:1]/4,4,
4-2[8:1]/5,6,4-8[8:1]/5,6,
5-7[8:1]/4,3,5-1[8:1]/4,3,
5/4p1[2:1],5,5,5,
4/5q8[2:1],4,4,{8}4,4,
4,,{32}8h[32:1],,7h[32:1],,6h[32:1],,5h[32:1],,{16},,4,4,4,,8,,
{32}1,2,3,4,5,,7b,,1,2,3,4,5,,7b,,{16}1,,,,,,,,
8bw4[2:3]*w4[2:3]*w4[2:3],,,,,,,,,,,,,,,,,,,,,,,,,,,,,,,,
{4}1-3[4:1],3-5[4:1],5-7[4:1],7-1[4:1],1-3[4:1],3-5[4:1],5,7,
{16}1,8,1,8,2,7,2,7,3,6,3,6,4,5,4,5,
3,6,3,6,2,7,2,7,1,8,1,8,1,,,,
{4}8-5[4:1],5-2[4:1],2-7[4:1],7-4[4:1],4-1[4:1],1-6[4:1],6,5,
{16}2,4,2,4,3,5,3,5,4,6,4,6,5,7,5,7,
4,6,4,6,3,7,3,7,2,6,2,6,1,5,,,
{4}2>5[4:1],5<8[4:1],8>3[4:1],3<6[4:1],6<1[4:1],1>4[4:1],4,5,
{16}2,5,2,5,2,5,2,5,3,6,3,6,3,6,3,6,4,7,4,7,4,7,4,7,3,6,3,6,3,,,,
{4}8<4[4:1],4>8[4:1],8<4[4:1],4>8[4:1],8<4[4:1],4>8[4:1],8,4,
{32}7b/8,1,2,3,,,,,7b/1,2,3,4,,,,,7b/2,3,4,5,,,,,{16}5,3,5,3,
4,2,4,2,5,1,5,1,6,2,6,2,7,,,,
5h[1:3],,,,4,,,,4,,,,3,,4,,
,,3,,2,,,,1,,,,2,,2,,
2,,,,4,,,,6,,,,1,,8,,
,,1,,2,,,,3,,,,5,,4,,
4h[1:3],,,,5,,,,5,,,,6,,5,,
,,6,,7,,,,8,,,,7,,7,,
7,,,,5,,,,3,,,,8,,1,,
,,8,,7,,,,6,,,,4,,5,,
{8}45,,56,,67,,78,,
18,,12,,23,,34,45,
56,,78,,12,,34,,
56,,78,,12,,45,45,
46,46,36,36,37,37,27,27,
28,28,18,18,27,36,45,45,
{16}6,7,8,1,2,3,4,5,6,7,8,1,2,3,4,5,
{1},
{32}1,2,3,4,5,6,7,8,1,2,3,4,5,6,7,8,1,2,3,4,5,6,7,8,1,2,3,4,5,6,7,8,
{16}1,2,3,4,5,6,7,8,1,,,,,,,,
{8}7-3[8:1],,8-4[8:1]/7,,1-5[8:1]/8,,12,2qq5[4:1],
,2,4,,6-1[8:1],,4,3,
2-6[8:1],,1-5[8:1]/2,,8-4[8:1]/1,,87,7pp4[4:1],
,7,5,,3-8[8:1],,5,6,
7-3[8:1],,8-4[8:1]/7,,1-5[8:1]/8,,12,2qq5[4:1],
,2,4,,6-1[8:1],,4,3,
2-6[8:1],,1-5[8:1]/2,,8-4[8:1]/1,,87,7pp4[4:1],
,7,2,2,2,,8,7,
6-2[8:1],,5-1[8:1]/6,,4-8[8:1]/5,,43,3pp8[4:1],
,3,1,,7-4[8:1],,1,2,
3-7[8:1],,4-8[8:1]/3,,5-1[8:1]/4,,56,6qq1[4:1],
,6,8,,2-5[8:1],,8,7,
6-2[8:1],,5-1[8:1]/6,,4-8[8:1]/5,,43,3pp8[4:1],
,3,1,,7-4[8:1],,1,2,
3-7[8:1],,4-8[8:1]/3,,5-1[8:1]/4,,56,6qq1[4:1],
,6,8,,2-5[8:1],,8,7,
2h[8:1]/7h[8:1],,2h[8:1]/7h[8:1],,2h[8:1]/7h[8:1],,1b/8b,1b/8b,
{8}4/2-6[8:1],,2/1qq5[8:3],,5,4,,2,
,1q5[8:1],,1/8,7,6-3[8:1],,1-4[8:1]/6,
,,7p3[8:1],,7,2p6[8:1],,2,
5>2[8:1],,5,,{16}2,,,3,,,4,,
{8}5/7-3[8:1],,7/8pp4[8:3],,4,5,,7p3[8:1],
,7,1q5[8:1],,1<6[8:1],,1>4[8:1],,
1p5[8:1],,1V35[8:1],,{16}1,,,8,,,8V64[8:1],,
{8}8-4[8:1],,8,1-3[8:1],,1,7,,
{8}5/7-3[8:1],,7/8pp4[8:3],,4,5,,7,
,8p4[8:1],,8/1,2,3-6[8:1],,8-5[8:1]/3,
,,2q6[8:1],,2,7q3[8:1],,7,
4<7[8:1],,4,,{16}7,,,6,,,5,,
{8}4/2-6[8:1],,2/1qq5[8:3],,5,4,,4v7[8:1],
,4,2>5[8:1],,2,1,8q4[6:1]*p4[6:1],,
8,,,,{16}18,7,6,5,4,3,2,1,
87,,1p5[8:1]/6,,1,7,,,,2V48[2:1],,7V51[2:1],,2,,7,,,,,,,,,,,,,,,,,
8,7,6,5,4,3,2,1,5,6,7,8,1,2,3,4,
{4}5V36[4:1],,1V72[4:1],,6<3[4:1],,,,4V63[4:1]/8V27[4:1],,,,3V51[4:1]/7V15[4:1],,,,2<7[8:1],,5>2[8:1],,8<5[8:1],,,,7-1[8:1],2-6[8:1],5-3[8:1],,8pp3[2:1]*qq5[2:1],,,,
78,,12,,
{16}2,3,4/8,7,1/6,2,3/7,6,2/5,3,4/8,7,1/6,2,3/7,6,
2,3,4/8,7,1/6,2,3/7,6,2/5,3,4/8,7,1-5[8:1]/6,2,3/7,6,
1b,
