&title=king妃jack躍
&artist=宮守文学
&first=0
&des=MYOU
&lv_5=13+
&inote_5=(134)
{1},
{8},,,,,3/4pp6[8:1],,,
{4}5h[1:2],6,,6,
{4},6,6>3[8:1],,
{4}4h[4:3],3,,3,
{16}3,3,4,,35,,46,,6,6,5,,45,,34,,
{4}2b-5[8:1]/5b-7[8:1],2/5-1[8:1],{16}8h[16:3],,,2h[16:3],,,4,,
{8}3/5<8[8:1],53,2,{16}2,3,4,5/6>3[8:1],,7,,7h[16:3],,,
{8}2,35,6,57,8,46,3,24,{16}1,4,3,8,1s5[8:3],4,3,8,,,,,,,,,
{4}4/6-4[8:1],3-6[8:1],{16}7-3[8:1],,,5,,,4>1[8:1],,
{8},7,6,5,{16}2qq3[4:1]/4h[16:3],,,,,,,,
{4}6-8[8:1],4-8[8:1],{16}6-3[8:1],,,1,,,2pp4[8:1],,
{16}4>1[8:1],,,,8,7,6,5,{8}8,6,4,2,
{4}3-1[8:1]/8-4[8:1],3-7[8:1]/8,{16}8>3[8:1],,,6,,,5qq6[4:1],,
{8},2,1,8,{16}17,,8,,2,4<3[16:5],,4h[16:3],
{16},,,,,,5,5,43,,2,1-6[8:1],,82,,7s3[8:3],
{8},,,,,4h[16:1],5h[16:1],6h[16:1],
{16}3b/7b,,2,1,2,8,3,,26,,7,8,6h[8:1],,5,6,
{16}4,5,3,4,2-5[8:1],,1,,6-1[8:1],,7,,4,,3h[4:1],,
{16},,4,3h[8:1],,1,3,,2/4h[8:1],,3,4h[8:1],,1,4,,
{16}1,4,2,5,4qq5[8:3],7>5[16:5],,,,,,,,,,,
{8}76,8h[4:1],5,3h[4:1],4,6h[4:1],5-7[8:1],2,
{8}5-2[8:1],,6/5-1[8:1],,{16}54,,,2,8-4[8:1]*-3[8:1],,37,,
{1}8bq1[8:5],
{16},,2,8,3,,48,,7,5,6,,2v4[8:1]/5-1[8:1],,14,,
{8}2b/5b,,7<4[8:1]/4-1[8:1],,74,,25,4/7-4[8:1],
{8},5-1[8:1]/7,,4-7[8:1]/5,,34,1,26,
{8}4-2[8:1]/7v4[8:1],,4v1[8:1]*V68[8:1]/7,,4>5[4:1],,7,6h[4:1],
{8},3,24,1,8<5[8:1]/2,5pp5[4:1],4>1[8:1],,
{8}4,,4<7[8:1]/1h[4:1],,4,2,48,4-1[8:1]/8-5[8:1],
{8},8/4pp8[8:3],,41,,3,4-1[8:1],,
{16}74,,6,6,,1/4-7[8:1],,2,2,,3,3,,8/5h[8:1],,7<3[16:3],
{8}7,8,1,2,43,8,6/5-1[8:1],1,
{8}5b<4[8:3]/4b>5[8:3],,,,,,7b/2b,7b/2b>5[8:1],
{16},,6<8[16:1],,,1>3[16:1],,,4<8[8:1],,,,{12},,2,
{12}2,4,3,6,4,5,3,4,4,5,4,4,2,5,4,7,3,4,{8}1,24,8-4[8:1],75,
{8}8bqq5[8:3]*pp3[8:3],,,,,,2b/7b,2b/7b-4[8:1],
{16},,3-1[16:1],,,8-6[16:1],,,5V31[8:1],,,,{12},,8,
{12}8,5,6,2,5,4,6,5,5,3,4,4,7,5,6,1,3,2,8,6,7,1>8[8:5],4,2,
{8}8b,,,,,{16}5h[16:3],,,1h[16:3],,,
{16}4h[16:3],,,3h[16:3],,,8,,8/1h[16:3],,,2h[16:3],,,3,,
{8}3>8[8:1]/4<7[8:1],,3b/4b,,1q5[8:1]*>4[8:1],,1,,
{16}7,5,6,4,5,3,4,2,1,3,8,4,7,1,6,2,
{16}3/5<2[4:1],,,8,,,3,,5>8[4:1],,,2,,,7,,
{16}5h[4:1],,,,7,8,1,2,3v1[8:1]/7,,8V64[8:1],,,8,,,
{16}2bq6[16:1]*v7[16:1],,,2b,,,,,8bv5[16:1]/5bp1[16:1],,,5b/8b,,,,,
{12}26,26,26,37,37,37,4/8-4[8:1],,,1>1[2:3],,,
{1},
{4},,,1>1[2:3],
{1},
{4}5h[8:1],5h[8:1],5h[8:1],5h[8:1],
{16}1b-6[32:3]/5,,,2b,,,3b-8[32:3],,,4b,,,5b-2[32:3],,,6b,
{16},,7b,,,8b,,,5b/4b,,,2b/8b,,3/7h[16:3],,,
{8}1,1,17,7,57,5,53,3,
{16}1,5,3,7,1,5,3,7,{32}1,2,3,4,8,7,6,5,1,2,3,4,5,6,7>6[32:114],8h[32:129],
{1},
{1},
{1},
{1},
{2}6v5[4:1],6-4[16:3],
{2}6v5[4:1],6-4[16:3],
{8}6h[2:1],,,,7h[8:3],,,8qq7[8:2]*>4[8:2],
{8},,,,,26,1v4[8:1]/5-8[8:1],84,
{8}1b/5bqq5[32:7],,7V51[32:5]*V58[32:5],,7,,27,4/6-8[8:1],
{8}7,5-1[8:1]/6,3,4<7[8:1]/5,2,34,1qq7[8:1],28,
{8}3qq1[8:1]/1,,8p3[8:1]/3,,2<4[4:1]/8,,5,6h[4:1],
{8},2,14,8,7-4[8:1]/1,6/4V61[4:1],2-5[8:1],,
{8}2,,5>2[8:1]/8-4[8:1],,8/5<8[8:1],,52,4p8[8:1],
{8},7/4pp5[8:2],5,41,,2,3/1-5[16:2],,
{8}2/1,{16}3,3,,47,,6,{8}6/2>5[8:1],3,2/4-1[8:1],8,
{8}4/7-3[8:1],6,7/8<5[8:1],1,28,3,4-8[8:1]/5-1[8:1],27,
{8}5b<4[8:3]/4b>5[8:3],,,,,,7b/2b,7b/2b>5[8:1],
{16},,6<8[16:1],,,1>3[16:1],,,4<8[8:1],,,,{12},,2,
{12}2,4,3,7,5,6,1,4,4,7,5,5,1,3,2,8,6,7,{8}1,24,8-4[8:1],75,
{8}8bqq5[8:3]*pp3[8:3],,,,,,2b/7b,2b/7b-4[8:1],
{16},,3-1[16:1],,,8-6[16:1],,,5V31[8:1],,,,{12},,8,
{12}8,5,6,2,4,3,7,6,6,2,3,3,8,5,6,8,3,2,1,6,8,1-5[8:1],4,2,
{1}8b,
