&title=MIRINAE
&artist=TAK x Zekk
&first=0
&des=夜↓浪 x N↑TRO
&lv_5=14
&inote_5=(180){4},,,,
,,,,
{4}1/8h[8:12],1,7,6,
{4}5,4,3,2,
{4}1/7h[8:12],1,8,6,
{4}5,4,3,2,
{4}1/6h[8:12],1,8,7,
{4}5,4,3,2,
{4}1/5h[8:12],1,2,3,
{4}4,6,7-3[8:1]*-5[8:1],,
{16}1b,,,,
7/3,,6,6,
5,,8h[8:1],,
2h[8:1],,4,,
{8}3-8[8:1],5,6,7h[4:1],
,1,2,7,
{8}5-3[8:1]/8,,7-5[8:1],,
1-5[8:1],,,,
{8}4-6[8:1],,2-4[8:1],,
8-4[8:1],,,,
{16}1b,,,,
2/6,,3,3,
4,,1h[8:1],,
7h[8:1],,5,,
{8}6-1[8:1],4,3,2h[4:1],
,8,7,2,
{4}1/4-6[8:1],2-6[8:1],8-6[8:1],,
{4}5-3[8:1],7-3[8:1],1-3[8:1],,
{4}5h[1:2],4,6,7,
{4}8,1,2,3,
{4}4h[4:7],3,2,1,
{4}8,7,6,5,
{16}2h[8:1],,4,3,
,6,5,,
7h[8:1],,5,6,
,3,4,,
{16}1h[8:1],,5,3,
,7,5,,
8h[8:1],,4,6,
,2,4,,
{16}1,,1,,
1/3,,1,,
8,,8,,
8/6,,8,,
{16}1,3,1,,
8,6,8,,
2-4[8:1]*-6[8:1],,1,,
,,,,
{1}5b<4[2:2]/7,
{4},,4-1[12:1]/5-8[12:1],4/5,
{32}1b/8b,2/7,3/6,4/5,,,,,
{16}3,6,4,6,2,6,5,6,1h[8:1],,7,,
{16}2,6,2,6,3,5,3,5,4,4,4,4,4-6[12:1]*-2[12:1],,,,
{8}4b,,1-6[8:1]/7,2,3/1,,1-5[8:1]/7,2,
1/3^6[8:1],,7-4[8:1],,2^5[8:1],,,,
{32}6b/4b,7/3,8/2,,,,,,
{16}1,6,2,7,1,6,2,7,1h[8:1],,6,,
3,4,2,6,3,5,1,4,2,2,2,2,2-4[12:1]*-8[12:1],,,,
{8}2b-6[8:1],,8p4[8:1]/2b,,8b/1h[8:2],,6V42[24:5],6-8[12:1],
,,,,1-5[8:1]/3,,8^5[8:1]/1,,
{32}8b/1b,2,3,4,,,,,
{16}3,6,4,6,2,6,5,6,1h[8:1],,6,,
{16}2,4,4,4,3,4,4,4,3,3,3,3,3^6[8:1]*^8[8:1],,,,
{8}3b,,1-6[8:1]/7,2,3/1,2,1-5[8:1]/7,2,
1/3,2,1^6[8:1]/7,2,3-5[12:1]/1,,,,
{32}7b/4b>5[8:2],6/3,5/2h[32:14],,,,,,
{8},,,,1^6[8:1]/6,2bqq1[6:1]/8b,
{8},,,5,
{16}8,8,8,8,8-2[12:1]*-6[12:1],,,,
{8}8b-4[8:1],,8b/2^5[8:1],,2b/6^1[8:1],,3V58[16:3]/6b,3h[8:3],
,,,,1w5[8:1]/2,1/2,,,
{4}3<8[8:12]/7<2[8:12],,,,
,,,,
{4}2>7[8:12],6>1[8:10],,,
,,,,
{16}1,,,5,2v3[8:1],,7,,
8,,,4,7v6[8:1],,2,,
1,,,5,3v3[8:1],,7,,
8,,,6,5,,4/7,,
{4}8/3-8[8:1],3/7-4[8:1],7/2-5[8:1],2/6pp3[2:1],
{8},,,,2-6[8:1]*-4[8:1],,,,
{8}5b/7h[8:3],,{16}8,1,2,3,
{8}5-3[8:1]/4-6[8:1],,,,
{8}8-2[8:1]/1-7[8:1],,,,
5-3[8:1]/4-6[8:1],,,,
{8}2h[8:3],,{16}1,8,7,6,
{8}4-6[8:1]/5-3[8:1],,,,
{16}2-8[8:1]/7-1[8:1],,,3/6,{8},,
3-5[8:1]/6-4[8:1],,,,
{8}7h[8:3],,{16}8,1,2,3,
{8}6-3[8:1]/4-7[8:1],,,,
{8}2-7[8:1]/8-3[8:1],,,,
6-3[8:1]/4-7[8:1],,,,
{8}2h[8:3],,{16}3,4,5,6,
{8}3-6[8:1]/7-4[8:1],,,,
{8}7-2[8:1],,1-6[8:1],,
3-6[8:1],,5-2[8:1],,
{1}8bw4[8:9],
{4},,,2/6,
{8}1/3h[8:5],,2,4h[8:4],
,,,1h[8:3],
{8},,3-6[8:1],,
2,,3,,
{8}5/7h[8:5],,6,8h[8:4],
,,,5h[8:2],
{8},,6-3[8:1],,
7,,8,,
{8}4/2h[8:5],,3,1h[8:4],
,,,4h[8:2],
{8},,2V41[8:2]*V47[8:2],,
,,,,
{8}8/1-5[8:1],,5-3[8:1],6,
7-5[8:1],,1,,
{8}4-6[8:1],3,2-4[8:1],,
8-4[8:1],,8/2,,
{8}1-5[8:1],,5-3[8:1],6,
7-5[8:1],,1,,
{8}4-6[8:1],3,2-4[8:1],,
8-4[8:1],,8/1,,
{8}5/2,5,5/4,5,5/6,5,5/8,5,
{8}2/5,2,2/3,2,2/1,{24}2,3,4,
5/8,,,7,6,5,
{16}4/1,,3,4,2h[16:2],,5,4,
8,,6,4,7h[16:2],,3,5,
{16}2h[16:2],,4,3,7h[16:4],,{24}5,4,3,
2,,,6,5,4,3,,,{16}1,4,
{16}2,5,3,6,
4,7,3,8,
2,7,1,6,
3,5,2,7,
{16}1h[16:1],8h[16:1],1h[16:1],8h[16:1],1h[16:1],8h[16:1],1h[16:1],8h[16:1],
{24}1,2,3,7,6,5,4-8[8:1]/1,,,,,,
{16}4b-6[12:1]/2-4[12:1],,,,,,,,
8,4,7,3,6,2,5,1,
{8}4b-2[12:1]*-6[12:1],,4b-8[8:1],,
4/1b^4[8:1],,1b/7^4[8:1],8,
{16}7b/2,,,,1,2,3,4,
8,1,2,3,7-5[12:1],8,1,2,
{8}7b-1[12:1]/3-5[12:1],,7b-3[8:1],,
7/1b^4[8:1],,1b>7[24:6]/7,8,
{16}1b,,,,1,2,3,4,
1,2,3,4,1-5[8:1],2,3,4,
{8}1b-7[12:1]/5-3[12:1],,1b-5[8:1],,
1/6b^1[8:1],,6b/4^1[8:1],5,
{16}4b/7,6,5,4,8,7,6,5,
1,8,7,6,2,1,8,7,
{16}6/1,5,4,3,7,6,5,4,
{24}7,6,5,4/8,3/7,2/6h[24:7],1-5[8:1],,,,,,
{16}1b-3[12:1]*-7[12:1],,,,,,,,
2,5,3,6,4,7,5,8,
{8}6b-8[12:1],,6-2[8:1]/5b,,
6-4[12:1]/4b,,6/3b,2,
{16}8/1bp5[8:1]*v6[8:1],,,,,,,,
2,5,4,6,1,5,3,6,
{16}8b^5[12:1],,,4bV61[8:1],,,3b,,
2bw6[8:1],,,,,,,,
{8}8h[8:1]/7b<4[12:1],,{32}8,1,2,3,,,,,
{8}1h[8:1]/2b>5[12:1],,{32}1,8,7,6,,,,,
{8}1b/7b,8b,{32}1/7,2/6,3/5,4,,,,,
{8}8b/2b,1b,{32}8/2-6[8:1],,7/3,6/4,5,,,,
{8}7<4[8:1]/2b,,7b/2-6[8:1],,
8<5[8:1]/2b>5[8:1],,8b/2b,,
{8}6h[8:2]/2,1,{32}1,2,3,4,6,7,8,,
{8}3^5[12:1],6V42[12:2],8-4[8:1],,
{8}8b,,{24}1h[32:1],2h[32:1],3h[32:1],5h[32:1],6h[32:1],7h[32:1],
1h[32:1],2h[32:1],3h[32:1],4h[4:1]/6,,,
,,,7h[32:1],6h[32:1],5h[32:1],
{24}3h[32:1],2h[32:1],1h[32:1],7h[32:1],6h[32:1],5h[32:1],
3h[32:1],2h[32:1],1h[32:1],7h[32:1],6h[32:1],5h[32:1],{8}4-7[8:1]/2,,1-5[8:1],,
{8}1b/6,,{24}8h[32:1],7h[32:1],6h[32:1],4h[32:1],3h[32:1],2h[32:1],
8h[32:1],7h[32:1],6h[32:1],5h[4:1]/3,,,
,,,2h[32:1],3h[32:1],4h[32:1],
{24}6h[32:1],7h[32:1],8h[32:1],2h[32:1],3h[32:1],4h[32:1],
6h[32:1],7h[32:1],8h[32:1],2h[32:1],3h[32:1],4h[32:1],{8}5-2[8:1]/7,,8-4[8:1],,
{8}8b/3,,{24}1h[32:1],2h[32:1],3h[32:1],6h[32:1],7h[32:1],8h[32:1],
2h[32:1],3h[32:1],4h[32:1],5h[4:1]/7,,,
,,,8h[32:1],7h[32:1],6h[32:1],
{24}4h[32:1],3h[32:1],2h[32:1],7h[32:1],6h[32:1],5h[32:1],
3h[32:1],2h[32:1],1h[32:1],6h[32:1],5h[32:1],4h[32:1],{8}3-7[8:1]/2,,1-5[8:1],,
{8}1b/6,,{24}8h[32:1],7h[32:1],6h[32:1],3h[32:1],2h[32:1],1h[32:1],
7h[32:1],6h[32:1],5h[32:1],4h[4:1]/2,,,
,,,1b,2/5,3/6,
{8}4h[4:1]/7,,{24}1,2,3,4/1,5/2,6/3,
{8}4/7-3[8:1],,1-5[8:1],,
{8}1b/6,,{24}7h[32:1],6h[32:1],5h[32:1],1h[32:1],2h[32:1],3h[32:1],
5h[32:1],6h[32:1],7h[32:1],8h[4:1],,,
,,,1h[32:1],2h[32:1],3h[32:1],
{24}7h[32:1],6h[32:1],5h[32:1],2h[32:1],3h[32:1],4h[32:1],
5h[32:1],6h[32:1],7h[32:1],8h[32:1],1h[32:1],2h[32:1],{8}3-7[8:1],,5-1[8:1],,
{8}5b/3,,{24}2h[32:1],3h[32:1],4h[32:1],8h[32:1],7h[32:1],6h[32:1],
4h[32:1],3h[32:1],2h[32:1],1h[4:1],,,
,,,8h[32:1],7h[32:1],6h[32:1],
{24}2h[32:1],3h[32:1],4h[32:1],7h[32:1],6h[32:1],5h[32:1],
4qq8[2:1],3h[32:1],2h[32:1],1h[32:1],8h[32:1],7h[32:1],{8},,,,
{4}5bpp4[2:1],,
{16}2,,,3>5[8:5],3h[16:7],,,,
{4},,2,3,
{4}6/4bqq5[2:1],,7h[8:3],{8},6<3[8:5]*pp5[8:5],
{1},
{4}4h[8:14],5,6-8[12:1],,
{4}2-8[12:1],,8-4[8:1],,
{4}5h[8:14],4,3-1[12:1],,
{4}7-1[12:1],,1-5[8:1],,
{4}4h[8:10],7,5-3[12:1],,
{4}1-5[8:1],,3-5[12:1]/7-5[12:1],,
{4}6h[8:10],3,5-7[12:1],,
{4}8-2[12:1],,2-4[8:1]*-6[8:1],,
{4},E
