&title=snooze
&artist=wotaku/SHIKI
&first=0
&lv_5=14+
&des=qian_zh
&inote_5=
(150){4},{32},1/8,2/7,3/6,{8}5h[32:5],{32},3h[4:1],,,,5,,,,5h[8:1],,,,6h[4:1],,,,,,,,3h[8:3],
,,,,,,{8}6h[32:9],{32},,,,,,,,,,,,,3h[4:1],,,,,,,,4,
,,,4,,,,5,,,,5,,,,6,,,,6,,,,7,,,,7,
,,,8h[4:1],,,,,,,,,,,,1-6-2[4:1],,,,1,,,,1,,,,,,,,,,,,,,,,2/7,
,,,,,,,2/7,,,,,,,,2/7,,,,,,,,2/7,
,,,,,,,2/7,,,,,,,,2/7,,,,,,,,2/7,,,,,,,,2/7,
,,,7,,,,2/7,,,,2,,,,2/7,,,,7/2,,,,3,,6,,3,,6,
,3,6x,3x,6x,3x,6x,3x,6x,3x,,,,,,,,,,,{8}E7,{32},E1,,,,,,,,E3,
,,,,,,,2bx/C,,,,,,1bx,,2bx,,,,2bx,,,,2bx/7bx,,,,7bx,,,,2bx/7bx,
,,,2bx,,,,2/7,,,,,,8,,2/7,,,,1,,,,3/6,,,,8,,,,3/6,
,,,1,,,,3/6,,,,,,5,,4,,,,3,,,,3/6,,,,8,,,,3/6,
,,,1,,,,3/7,,,,,,7,,6/2,,,,1,,,,3/7,,,,8,,,,6/2,
,,,1,,,,3/7,,,,,,7,,6/4,,,,3,,,,4/6,,,,7,,,,6,
,4,,6,,4,,3/7,,,,,,2,,3/7,,,,8,,,,2/6,,,,1,,,,3/7,
,,,8,,,,2/6,,,,,,1,,3/7,,,,8,,,,6/3,,,,1,,,,3/6,
,,,8,,,,4/5,,,,,,6,,5/4,,,,3,,,,4/5,,,,6,,,,5/4,
,,,3,,,,4/5,,,,,,6,,4/5,,,,7b/2b,,,,,,,,,,,,E2/E1/E8/C/E4/E5/E6/B7/B3,
,,,,,,,3/5,,,,,,4,,3/5,,,,2,,,,3/5,,,,6,,,,5/3,
,,,4,,,,6/4,,,,,,5,,6/4,,,,7,,,,6/4,,,,3,,,,4/6,
,,,5,,,,3/6,,,,,,4/5,,3/6,,,,2/7,,,,3/6,,,,6/7,,,,3/6,
,,,3/2,,,,2b/3b,,,,,,4b/5b,,,,,,6b/7b,,,,,,,,,,,,A6/E7/E8/A8/C/B8/B4/A4/E4/E3/A2,
,,,,,,,2/7,,,,4,,5,,4,,5,,4,,5,,4,1x,2x,3x,4x,5x,6x,
7x,8x,1x,2x,3x,4x,5x,6x,7x,8bx,1bx,8bx,1bx,8bx,,4bx,5bx,4bx,5bx,4bx,,7bx/2bx,,6bx/3bx,,4bx,4bx,4bx,4bx,4bx,,,,5bx/4bx/E4/E5/E6,
B3/B6,B2/B7,{8}E2/E1/E8,{32},2/7,,,,3,,5,,4,,,,5/4,,,,6,,4,,5,,,,3,
,5,,4,,,,2,,7,,2,,7,,1/8,,,,2-6[8:1],,,,1/8,,,,2/7,,,,,,,,,,,,4/5h[8:1],
3,2,,,,,,8/5h[8:1],7,6,,,,,,5h[4:1],,4,3,2,1,8,
7,6,,,,,,,,6<7>8[8:1]/2<1<8[8:1],,,,3/5,,,,2/6,,,,,,,,,,,,1h[8:3],,,,2,
,,,3,,,,5h[4:3],,,,4,,,,3,,,,2,,,,1,,,,1w5[8:1],,,,2,
,,,E8/E1/E2/B2/B7/B6/E6/E5/E4/B3,,,,,,,,3>2-6[8:1],,,,6<7-3[8:1],{4},,{16},,,{32},4bxh[16:1],
,5bxh[16:1],,4bxh[16:1],,5bxh[16:1],,4bxh[16:1],,5bxh[16:1],,4bxh[16:1],,5bxh[16:1],,4bxh[16:1],,5bxh[16:1],,4bxh[16:1],,5bxh[16:1],
,4bxh[16:1],,5bxh[16:1],,4bxh[16:1],,5bxh[16:1],,Cf/A2/E2/E1/A8/B2/B6/A6/E6/E5/A4,,,,4x,,,,2/8,,,,,,,,2/8,,,,3,,,,4/6,
,,,5,,,,6/4,,,,7,,,,2/8,,,,1,,,,2,,,,3,,,,2,
,,,3,,,,2-7-4-1-6-2[2:1],{1},{16},{32},1h[4:1]/8h[8:3],
,,,,,,,,,,,,,,,,,,,D4/E2/B1/E1/B8/E8/E7/B7/E5/E3/D6/E6/B5/B3/A3/D3/E4,
,,,,,,,A6/D7/A7/D8/A8/D1/A1/A2/D2/B2/B6/Cf/B4/A4/D5/A5,,,,,,,,,,,,3,,,,2/4,,,,,,,,5,
,,,3h[8:1],,4,,4,,,,6h[16:3],,5,,,,5,,,,3h[16:3],,4,,,,4,,,,,,,,2h[8:1],
,1,,1,,,,3h[16:3],,4,,,,4xh[8:1],,,,5h[16:3],,6h[8:1],,,,,,,,A6/A3,
,E7/E3,,B7/B2,,B8/B1/E1,,,,,,4bx/5bx,,4bx/5bx,,4bx/5bx,,,,4bx/5bx,,4bx/5bx,,5bx/4bx,,,,4bx/5bx,,4bx/5bx,
,,,4bx/5bx,,4bx/5bx,,,,A7/A2/A4/D5/B4/E5/A5/B5/D6/B2/E6/D4/E4/B3/E3/D3/A6/E7/D7/A3/Cf,,,,,,,,2h[2:1],,,,1,,,,1-5[8:1],,,,,,,,1,
,,,8,,4,,8,,4,,8,,4,,8-4[16:1],,4-8b[16:1],,8,,4,,8,,,,,,,,,,,,1,
,5,,1,,5,,2,,6,,3,,7,,4,,8h[16:3],,5h[4:1],,,,,,,,,,,,4b/7b,
{4},,,{16},{32},1x,
{16}2xh[32:7],{32},,,,,8x,{16}7xh[32:11],{32},,,,,,,,,2x,{16}3xh[32:11],{32},,,,,,,,,1x,
{16}8xh[32:7],{32},,,,,1x,{16}2xh[32:11],{32},,,,,,,,,7x,{16}6xh[32:11],{32},,,,,,,,,5x,
{16}4xh[32:7],{32},,,,,5x,,,,,,,,E7,,,,,,,,E8,,,,,,,,E2,
,,,,,,,E3,{4},,{16},,,{32},1x,
{16}2xh[32:7],{32},,,,,7x,{16}6xh[32:11],{32},,,,,,,,,5x,{16}4xh[32:11],{32},,,,,,,,,5x,
{16}6xh[32:7],{32},,,,,1x,{16}2xh[32:11],{32},,,,,,,,,4x,{16}5xh[32:11],{32},,,,,,,,,4x,
{16}3xh[16:3],{32},,,,6x,7x/2x,{16}8xh[32:15]/1xh[32:15],{32},,,,,,,,,,,,,,2x/7x,3x/6x,{8}4x/5x,
{32},,,,,,,,,,,,,2,,2,,,,4b,,,,,,3,,3,,,,4b,
,,,,,4h[16:1],,,,,,,,6,,6,,,,5b,,,,,,7,,7,,,,5b,
,,,,,5h[16:1],,,,,,,,8,,8,,,,7b,,,,,,1,,1,,,,2b,
,,,3h[16:1]/6h[16:1],,,,,,,,,,3h[16:1],,,,,,5,,,,,,6h[16:1],,,,,,,,4,
,,,,,,,2/7,,,,4,,5,,,,2/7,,,,4,,5,,,,3/6,,4h[16:3]/5h[8:1],
,,,,,,,,,,,,,1,,8,,,,2/7,,,,1,,8,,,,1/8,,2h[8:1]/7h[16:3],
,,,,,,,,,,,,,E7,,B7/B6,,,,B8/B1/C/B5/B4,,,,E3,,B2/B3,,,,B8/C/B5/B4/B1,,,,,,E7/B7/B6,
{64},,E1,E2,E3,E4,{4},,,{16},{32}C,
,,,,,,,B8/B7/B6/B5/B4/B3/B2/B1/Cf,,,,,,,,,,,,7,,6,,5bh[16:1]/4bh[16:1],,,,,,5bh[16:1]/3bh[16:1],
,,,,,5b/2b,,,,,,,,3h[8:1],,,,6h[8:1],,,,3,,,,4b/5b,,5,,,,4,
,3bh[8:1]/6bh[8:1],,,,,,,,2b/7b,{64},,,,,,,,,,,,,,A7/A3,E8/E4,E1/E5,E2/E6,{32}A2/A6,,,,,,2-5[8:1],,,,7-4[8:1],,,,2-7[8:1],
,,,7-2[8:1],,,,2>7[8:1],,,,,,,,,,,,,,,,1/8b,,,,1/7b,,,,1/6b,
,,,1/5b,,,,1/4b,,,,,,,,E6/E4,,,,E8/E2,,,,A8/A1,,E8/E2,,B7/B2,,B6/B3,
,E6/E4,,,,2bh[16:3]/7bh[16:3],,,,,,,,3b,,4b,,,,3b/6b,,,,5b,,4b,,,,6,,,,2b/7b,
,,,3,,,,7bh[8:1]/2bh[8:1],,,,,,2bh[8:1]/7bh[8:1],{64},,,,,,,,,,,,,,,,,,D7,A7,D8,A8,D1,A1,D2,A2,{32}D3,,,,2/7,
,,,,,,,Cfh[1:1]/7-3-6-2[8:3],{4},,{16},,,{32},8w4[16:1],
,,,,,,,B7/B1/E8/E1,B6/E6/B2/E3/B4,A5/A4/A3,,B1/B2,,B6/B5,,,,,,B8/B7,,B3/B4,,A8/D8/A7/D7/A6/D6/A5/E8/B7/B6/E6/E7f,,,,,,D1/E1/B8/B5/E5/D5/B4/B1/Cf,
,,,,,A1/E2/B2/B3/E4/A4/D4/A3/D3/A2/D2/E3f,,,,,,,,2-6z2[4:1]*-6s2b[4:1],,,,6,,,,2,,,,,,,,,,,,3/6,
,6/3,,3/6,,,,4/5,,,,2,,,,4/5,,,,6,,,,4h[4:1]/5h[8:1],,,,,6,7,
8,1h[4:1],,,,5h[16:3],,,,,,,,1h[16:1],,,,5h[8:1],,,,1h[4:1],,,,5h[8:1],,,,,8h/4h,7h/3h,
6h/2h,5h[16:1]/1h[32:3],,,,5x,1x,5x,1x,5x,,,,2x,,2x,,6x,,6x,,4x,,4x,,Ch[16:3],,,,,,B8/B7,
,,,,,Ch[16:3],,,,,,B6/B5,,,,,,Ch[16:3],,,,,,B4/B3,,,,,,Ch[16:3],,,,,,B2/B1,
,,,,,2b,,,,2b,,,,7b,,,,7b,,,,2,,2,,7,,7,
,3,,3,,6,,6,,1b,2,3,4,5,6,7,8,1b,2,3,4,5,6,7,8,1b,2,3,4,5,6,7,
8,1bx,2bx,3bx,4bx,5bx,6bx,7bx,8bx,1bxw5b[16:1],,,,,,,,1bh/Cf/B7/B6/B8/B1/B2/B3/E6/A2/E3/E8/A5,,,,1x,,,,1xh[4:1],,,,,,8,
,,,,,8h[4:1]/2-4-6[4:1],,,,,,,,2,,,,,,,,,,,,4/5,,,,4,,5,
,4,,,,5/4>2[8:1],,,,3,,,,4/5<7[8:1],,,,6,,,,5/1-4[8:1],,,,2,,,,1/8-5[8:1],,,,7,
,,,1/8,,,,,,,,2h[8:5]/7p4>5[8:3],,,,8,,,,7,,,,,,,,,,,,,,,,,,,,7/2>4b[8:1],
,,,1,,,,2/7<5b[8:1],,,,8,,,,7/2>4b[8:1],,,,1,,,,7/2q4[2:1],
,,,8,,,,2/7p4[4:1],,,,,,,,,,,,,,,,,,,,4,,5,
,4,,,,3/6,,,,8-6[8:1],,,,6-3[8:1],,,,3-1v8>1[4:1],,,,,,,,,,,,,,,,E1,
,,,1/7,,,,8,,,,7/1-5-1[4:1],,,,8,,,,1/7-3-7[4:1],{4},,{16},,,{32},2/6,
,,,7b/3b,,,,4b/8b,,,,1bh[8:1]/5bh[8:1],,,,,,,,1<6[16:1]/5>2[16:1],
{16},,,{64},,{128}5/1/Cf/B7/B6/B3/B2/E4/E2/E8/A8/E6/A4/E5/E1,A8/A4,D8/D4,A7/A3,D7/D3,A6/A2,{64}D6/D2,,,,,,,,,,,,,{32}3/5,,,,8/4h[8:3],,,,8s4[8:1]*z4b[8:1],,,,,,,,8,
,,,E7/B6/B5,,E3/B2/B1,,5,,2,,6,,3,,7<4-8[4:1],,4,,8-4b[8:1],,5,,,,,,,,,,,,,,8,
,5,,7,,4,,6,,3,,5,,2,,4,,1,,3,,,,,,3b,
,,,,,3b,,,,,,,,1bx/6bx,,2b/7b,,3b/8b,,,,8bx/3bx,,7b/2b,,6b/1b,,,,8b,,8b,
,,,2b,,2b,,,,4bx/5bx/Cf/B5/B7/B1/B3,,,,,,,,2/7,,,,,,,,2/7,,,,3,,,,2/7,
,,,6,,,,2xh[4:3]/7V13>7v5[16:7],{4},,{16},,,{32},A5,
,,,5,,6,,7h[1:1]/2-6b[8:1],,,,,,,,2<8-4b[4:1],{1},{4},{16},,,{32},C/A2/E2/E1/A8/E8/E7/A6/E6/E5/A4/B3/B7,
,,,,,,,7/1h[8:1],,,,7,,,,7h[2:1]/2h[8:1],,,,,3,4,5,6h[4:1],,,,,,,,,,,,,,,,C,
,,,,,,,6h[8:1],,,,5h[8:1],,,,4h[4:1],,,,,,,,3,
2,1,8,7,6,5,4,3h[4:1],,,,,,,,4h[8:1],,,,,5,6,7,8h[8:1],,,,,,,,1h[2:1],
,,,,,,,C,,,,,,,,2h[8:1],,,,3h[8:1],,,,,,,,4h[8:1],,,,,3,
2,{8}1h[32:3],{32},1/C,2,3,4,5,6,7,8,1h[8:1],,,,,,,,7h[8:1],,,,,,,,6h[2:1]/2h[2:1],
,,,,,,,,,,,,,,,,3,4,5,6,,,,8,7,6,5,4,3,2,
1,8,7,6,5,4,3,2,1,8h[4:1],,,,,,,,7h[8:1],,,,,8,1,2,3,4,5,6,7h[8:1],,,,1h[2:1],
,,,,,,,,,,,,,,,,,,,1,,,,2-6[16:1],3,4,5,6,7,8,
1,2/Cf,,,,,,,,2h[4:1]/7h[8:7],,,,,,,,,,2x,,2,,2x,,2,,2x,,2<7[8:1],,2x,
,2,,2x,,2,,,,,,,,,,,,7x/2h[16:9],,7,,7x,,7,,7x,,7<2[16:3],,7x,,7,
,7x,,7,,,,,,7,,1,,7,,2b,,7,,3,,7,,2b,,7,,1,,7,,2b,
,7,,3,,7,,2b,,7,,1b,,7,,2b,,7,,3b,,7,,4b,,7,,5b,,7,,6b,
,7,,7b,,,,,,,,,,,,,,3x/6h[16:9],,3,,3x,,3,,3x,,3<6[8:1],,3x,,3,
,3x,,3,,,,,,,,,,,,,,6x/3h[16:9],,6,,6x,,6,,6x,,6<3[16:3],,6x,,6,
,6x,,6,,,,,,7b,,1b,,8b,,2b,,1b,,3b,,2b,,4b,,3b,,5b,,4b,,6b,
,5b,,7b,,6b,,8b,,7b,,1b,,8b,,2b,,1b,,3b,,2b,,4b,,3b,,5b,,4b,,6b,
,4bw8b[8:1],,,,4b,,,,4b/Cf,
E
