&title=三百六十五里路
&artist=文章
&first=3.14
&des=左腿
&lv_5=13
&inote_5=(171.54){32},,,6<3[4:5],{4},,,{16},,,{32},5h[2:1],
{4},,,{16},,,{32},2<5[4:5],
{4},,,{16},,,{32},3h[2:1],
{4},,,{16},,,{32},2>7[4:5],
{4},,,{16},,,{32},1h[2:1],
{4},,,{16},,,{32},6>1[4:5],
{4},,,{16},,,{32},7p6[4:3],
{4},,,{16},,,{32},3<1[1:1],
,,,,,,,,,,,,,,,1,,,,,,,,,,,,,,,,5>7[1:1],
,,,,,,,,,,,,,,,7,,,,,,,,,,,,,,,,2<4[1:1],
,,,,,,,,,,,,,,,4,,,,,,,,,,,,,,,,8>6[1:1],
,,,,,,,,,,,,,,,6,,,,,,,,,,,,,,,,3>3[4:7],
,,,,,,,,,,,,,,,4h[4:1],,,,,,,,,,,,,,,,2h[4:1],
,,,,,,,,,,,,,,,8h[4:1],,,,,,,,,,,,,,,,6-2[16:47]*>3[16:47]*w2[16:47],
{1},,,{4},,,{16},,{1}4h[2:1]/6qq1[4:5],
7h[2:1],
8h[2:1]/2qq5[4:5],
3h[2:1],
1h[2:1]/7pp3[8:9],
{4}6<3[16:11],,,4z8[8:7]*>5[2:3],
,,,,,,,,{1}4h[2:1]/6p2[2:1],
4h[2:1]/2q3[8:5],
4-1[8:3]/1-3[8:3],
{2}5/7V58[8:5],{4}1,2>7[4:7],
{1}3<6[16:17],
{4},,1,2<7[1:1],
{2}3h[4:1],4h[4:1],
{4}6,5,4,3,
{2}4h[4:1]/6qq2[4:5],4,
7h[4:1],4,
8h[4:1]/2qq6[4:5],8,
3h[4:1],8,
8h[4:1]/7pp2[1:1],4,
{4}6<3[16:11],,,4q5[8:7]*>5[8:7],
,,,,{1}8<1[4:3],
{2}5p4[4:3],1,
3qq4[4:3],8,
5<4[4:3],4,
1s5[8:5],{4}6,7pp4[4:3],
{1}8V25[2:1],
{2}5/4,{4}6-4[4:1],4,
2h[4:1],3h[4:1],4h[4:1],5h[4:1],
{8}8h[8:1],6h[8:1],5h[8:1],1h[8:1],2h[8:1],4h[8:1],{4}3>5[16:7],
4/3,5<3[16:7],4,3>5[16:7],
4,5<3[16:7],4,3qq4[16:7],
4,4q5[16:7],5,5<4[16:7],
{2}8h[4:1],{4}6,4/5<3[16:7],
3,3q8[8:3],8,8<2[16:7],
2,2q7[8:3],7,7<1[8:3],
{2}8h[4:1],{4}8,6,
4<2[16:7],2,4,3p5[8:3],
4/3,5<3[16:7],4,3p5[8:3],
4,5<3[16:7],4,3qq4[16:7],
4,4q5[16:7],5,5<4[16:7],
{2}8h[4:1],{4}6,2<4[16:7],
4,4q1[8:3],1,1<3[16:7],
3,3p6[8:3],6,6<4[8:3],
{1}8<8[4:3],
{4}3h[4:1],4h[4:1],5h[4:1],6h[4:1],
{2}7>4[4:3],5,
6<3[4:3],4,
5<2[4:3],3,
4<1[4:3],2,
2>8[4:3],8,
1>7[4:3],7,
8>6[4:3],6,
7>5[4:3],5,
2<4[4:3],3,
7>5[4:3],6,
3<1[4:3],2,
6>8[4:3],7,
4<4[4:7],3h[4:1],
1h[4:1],7h[4:1],
{1}5w1[4:5],
{4},,,,3/6q3[8:5],
7,,4>5[4:3],
{1}4h[2:1],
{4}7/2q7[8:5],3,,8<1[4:3],
{1}8h[2:1],
{4}2/7pp2[8:7],6,5,4,
3>6[16:11],3,{2}3h[8:5],
{8},4q5[4:3],,,,,,,{1}8<1[4:3],
{2}4q5[4:3],8,
6pp5[4:3],1,
4>5[4:3],5,
8z4[8:5],{16}5,,,,,,,3s7[8:5],
,,,1V74[2:1],,,,,,,,,,,,,{2}8<8[4:3],
{4}4,6,
7h[4:1],6h[4:1],5h[4:1],4h[4:1],
{8}1h[8:1],3h[8:1],4h[8:1],8h[8:1],7h[8:1],5h[8:1],{4}4>5[16:7],
4/5,4<3[16:7],4,4>5[16:7],
4,4<3[16:7],4,4qq3[8:3],
5,5qq4[8:3],6,6>8[16:7],
7,7>5[16:7],6,6qq5[8:3],
7,7<8[16:7],7,7pp8[8:3],
7,7>6[16:7],7,7qq6[8:3],
8,8qq7[8:3],1,1qq8[8:3],
2,2>5[4:1],1,1>8[16:7],
1/8,1<2[16:7],1,1>8[16:7],
1,1<2[16:7],1,1pp2[8:3],
8,8pp1[8:3],7,7>5[16:7],
6,6>8[16:7],7,7pp8[8:3],
6,6<5[16:7],6,6pp7[8:3],
6,6<5[16:7],6,6qq5[8:3],
7,7qq6[8:3],8,8qq7[8:3],
1,1b,2b,4b/3b<2[16:7],
3/5,4<4[16:7],5,5<5[16:7],
6,6<6[16:7],7,7>7[16:7],
8,8q2[16:7],1,1<2[16:7],
1,1>8[16:7],1,1<1[16:7],
1,8qq7[8:3],4,8<1[16:7],
4,8pp1[8:3],4,8>6[16:7],
4,7>5[16:7],8,6<4[16:7],
7,5qq4[16:5],5,2<3[16:7],
2/8,1<1[16:7],8,8<8[16:7],
7,7<7[16:7],6,6>6[16:7],
5,5p3[16:7],4,4<3[16:7],
4,4>5[16:7],4,4<4[16:7],
4,5qq4[8:3],1,5<4[16:7],
1,5pp6[8:3],1,5>7[16:7],
1,6>8[16:7],5,7<1[16:7],
7b,1b,3b,5b/7b<8[16:7],
7/8,6pp5[16:7],3,5>5[16:7],
2,4pp3[16:7],1,3>3[16:7],
8,2pp7[16:7],1,8>6[8:3],
4<7[16:3],8<2[8:3],4>1[16:3],8>6[8:3],
4<7[16:3],1qq2[8:3],2,2>1[8:3],
4,4pp3[8:3],8,8>7[16:7],
2,1>8[16:7],3,2>1[16:7],
4,3qq2[16:5],3,5<4[16:7],
5/7,7qq8[16:7],2,8>8[16:7],
3,1qq2[16:7],4,2>2[16:7],
5,3qq6[16:7],4,5>7[8:3],
1<6[16:3],5<3[8:3],1>4[16:3],5>7[8:3],
1<6[16:3],4qq5[8:3],1,1<2[8:3],
7,7pp6[8:3],3,3<2[2:1],
{1}4>4[1:1],
{64},5b,{4},,,{16},,,{32},{1}2>1[1:1],
6<4[1:1],
{16},5<2[1:1],,,,,,,,,,,,,,,,,{8}4<8[1:1],
{4},,,{32}3,
,,,,,,,,3<6[96:97],{1},{4},,{16},,,{4}6,
5,{2}4<5[2:7],
{1}D5h[1:2],
E
