&title=[協] Sudden Death
&artist=DJ Ham & Cheese
&first=0
&des=EZ2ON REBOOT: R PATTERN feat. AZVW_2
&freemsg=
&wholebpm=128
&des_1=
&des_2=EZ2ON REBOOT: R PATTERN feat. AZVW_2
&des_3=
&des_4=
&des_5=EZ2ON REBOOT: R PATTERN feat. AZVW_2
&des_6=EZ2ON REBOOT: R PATTERN feat. AZVW_2
&lv_1=
&lv_2=17
&lv_3=
&lv_4=
&lv_5=19
&lv_6=20
&inote_1=
&inote_2=(128){8},,,,,,,,
(128){8},,,,,,,,
(128){8},,,,,,,,
(128){8},,,,,,,,
(128){64},,,,,,,,,,,,,,,,
,,,,,,,,,,,,,,,,
,,,,,,,,,,,,,,,,
,,,,,,,,,,,,,,,,
(128){64},,,,,,,,,,,,,,,,
,,,,,,,,,,,,,,,,
,,,,,,,,,,,,,,,,
,,,,,,,,6b,,,,,,,,
(128){64}6b,,,,,,,,,,,,,,,6b,
,,,,,,,,,,,,,,,,
,6b,,,,,,,,,,,,,,6b,
,,,,,,,,,,,,,,,,
(128){64},6b,,,,,,,,,,,,,,,
,6b,,,,,,,,,,,,,,6b,
,,,,,,,,,,,,,,,,
6b,,,,,,,,,,,,,,,,
(128){64}6b,,,,,,,,,,,,,,6b,,
,,,,,,,,,,,,,,,6b,
,,,,,,,,,,,,,,,,
,,6b,,,,,,,,,,,,,,
(128){64},6b,,,,,,,,,,,,,,6b,
,,,,,,,,,,,,,,,,
,6b,,,,,,,,,,,,,,6b,
,,,,,,,,6b,,,,,,,,
(128){64},,3b,,,,,,,,,,,,,,
,3b,,,,,,,,,,,,,,3b,
,,,,,,,,,,,,,,3b,,
,,,,,,,,,,,,,,,3b,
(128){64},,,,,,,,,,,,,,,,
,3b,,,,,,,,,,,,,,,
,,3b,,,,,,,,,,,,,3b,
,,,,,,,,,,,,,,,,
(128){64}3b,,,,,,,,,,,,,,,3b,
,,,,,,,,,,,,,,,,
3b,,,,,,,,,,,,,,,,
,3b,,,,,,,3b,,,,,,,,
(128){64},,,,,,,,,,,,,,,,
,,,,,,,,,,,,,,,,
,,,,,,,,,,,,,,,,
,,,,,,,,2b,,,,,,,,
(128){64}5b,,,,,,,,,,,,,,,,
,,5b,,,,,,,,,,,,,,
,5b,,,,,,,,,,,,,,5b,
,,,,,,,,,,,,,,,,
(128){64},5b,,,,,,,,,,,,,,,
5b,,,,,,,,,,,,,,,5b,
,,,,,,,,,,,,,,,,
,5b,,,,,,,,,,,,,,,
(128){64},,5b,,,,,,,,,,,,,,
,5b,,,,,,,,,,,,,,,
5b,,,,,,,,,,,,,,5b,,
,,,,,,,,,,,,,,,5b,
(128){64},,,,,,,,,,,,,,,,
5b,,,,,,,,,,,,,,,5b,
,,,,,,,,,,,,,,,,
,2b,,,,,,,2b,,,,,,,,
(128){64}5b,,,,,,,,,,,,,,,5b,
,,,,,,,,,,,,,,,,
,5b,,,,,,,,,,,,,,,
5b,,,,,,,,,,,,,,,5b,
(128){64},,,,,,,,,,,,,,5b,,
,,,,,,,,,,,,,,,,
5b,,,,,,,,,,,,,,,,
,5b,,,,,,,,,,,,,,,
(128){64},5b,,,,,,,,,,,,,,5b,
,,,,,,,,,,,,,,,,
,5b,,,,,,,,,,,,,,5b,
,,,,,,,,,,,,,,,,
(128){64},5b,,,,,,,,,,,,,,,
,,5b,,,,,,,,,,,,,,
5b,,,,,,,,,,,,,,,,
,3b,,,,,,,3b,,,,,,,,
(128){64}4b,,,,,,,,,,,,,,,4b,
,,,,,,,,,,,,,,,,
,4b,,,,,,,,,,,,,,,
4b,,,,,,,,,,,,,,,,
(128){64},4b,,,,,,,,,,,,,,,
4b,,,,,,,,,,,,,,4b,,
,,,,,,,,,,,,,,,,
,4b,,,,,,,,,,,,,,4b,
(128){64},,,,,,,,,,,,,,4b,,
,,,,,,,,,,,,,,,,
,,4b,,,,,,,,,,,,,,
4b,,,,,,,,,,,,,,,,
(128){64}4b,,,,,,,,,,,,,,,,
,4b,,,,,,,,,,,,,,4b,
,,,,,,,,,,,,,,,,
,2b,,,,,,,2b,,,,,,,,
(128){64},7b,,,,,,,,,,,,,,7b,
,,,,,,,,,,,,,,,,
7b,,,,,,,,,,,,,,,7b,
,,,,,,,,,,,,,,,7b,
(128){64},,,,,,,,,,,,,,,,
,7b,,,,,,,,,,,,,,7b,
,,,,,,,,,,,,,,,,
7b,,,,,,,,,,,,,,,,
(128){64},3b,,,,,,,,,,,,,,,
3b,,,,,,,,,,,,,,,,
,,3b,,,,,,,,,,,,,,
3b,,,,,,,3b,,,,,,,,4b,
(128){64},,,,,,,,,,,,,,,,
4b,,,,,,,,,,,,,,,,
,4b,,,,,,,,,,,,,,4b,
,,,,,,,,7b,,,,,,,,
(128){64},2b,,,,,,,,,,,,,,2b,
,,,,,,,,,,,,,,,,
,,2b,,,,,,,,,,,,,,
2b,,,,,,,,,,,,,,,,
(128){64}2b,,,,,,,,,,,,,,,,
,2b,,,,,,,,,,,,,,2b,
,,,,,,,,,,,,,,,,
,2b,,,,,,,,,,,,,,1b,
(128){64},,,,,,,,,,,,,,,,
,1b,,,,,,,,,,,,,,,
1b,,,,,,,,,,,,,,,,
,,1b,,,,,,,,,,,,,,
(128){64}1b,,,,,,,,,,,,,,,1b,
,,,,,,,,,,,,,,,,
,1b,,,,,,,,,,,,,,,
1b,,,,,,,,,1b,,,,,,,
(128){64}5b,,,,,,,,,,,,,,5b,,
,,,,,,,,,,,,,,,,
5b,,,,,,,,,,,,,,,5b,
,,,,,,,,,,,,,,,5b,
(128){64},,,,,,,,,,,,,,,,
,5b,,,,,,,,,,,,,,,
5b,,,,,,,,,,,,,,,,
,,5b,,,,,,,,,,,,,,
(128){64}3b,,,,,,,,,,,,,,,3b,
,,,,,,,,,,,,,,,,
,3b,,,,,,,,,,,,,,,
3b,,,,,,,,,,,,,,,,
(128){64},4b,,,,,,,,,,,,,,,
4b,,,,,,,,,,,,,,,4b,
,,,,,,,,,,,,,,,,
,4b,,,,,,,4b,,,,,,,,
(128){64}8b,,,,,,,,,,,,,,,8b,
,,,,,,,,,,,,,,,,
,,8b,,,,,,,,,,,,,8b,
,,,,,,,,,,,,,,,,
(128){64},8b,,,,,,,,,,,,,,,
8b,,,,,,,,,,,,,,,,
,8b,,,,,,,,,,,,,,,
,8b,,,,,,,,,,,,,,1b,
(128){64},,,,,,,,,,,,,,1b,,
,,,,,,,,,,,,,,,1b,
,,,,,,,,,,,,,,,,
,1b,,,,,,,,,,,,,,,
(128){64},,1b,,,,,,,,,,,,,1b,
,,,,,,,,,,,,,,,,
,1b,,,,,,,,,,,,,,,
1b,,,,,,,,1b,,,,,,,,
(128){8},,,,,,,,
(128){8},,,,,,,,
(128){8},,,,,,,,
(128){8},,,,,,,,
&inote_3=
&inote_4=
&inote_5=(128){8},,,,,,,,
(128){8},,,,,,,,
(128){8},,,,,,,,
(128){8},,,,,,,,
(128){8},,,,,,,,
(128){8},,,,,,,6,
(128){8}6,,6,,6,,6,,
(128){8}6,,6,,6,,6,,
(128){8}6,,6,,6,,6,,
(128){8}6,,6,,6,,6,6,
(128){8}6,1,6,1,6,1,6,1,
(128){8}6,1,6,1,6,1,6,1,
(128){8}6,1,6,1,6,1,6,16,
(128){8},,3b,,,,,7,
(128){64}47,,,,,,,,,,,,,,,,
37,4,,,,,,,,,,,,,,,
47,,,,,,,,,,,,,,,,
37,4,,,,,,,,,,,,,,,
(128){64}47,,,,,,,,,,,,,,,,
37,4,,,,,,,,,,,,,,,
47,,,,,,,,,,,,,,,,
37,4,,,,,,,,,,,,,,,
(128){64}47,,,,,,,,,,,,,,,,
37,4,,,,,,,,,,,,,,,
47,,,,,,,,,,,,,,,,
37,4,,,,,,,,,,,,,,,
(128){64}47,,,,,,,,,,,,,,,,
37,4,,,,,,,,,,,,,,,
47,,,,,,,,,,,,,,,,
37,4,,,,,,,,7,,,,,,,
(128){64}47,,,,,,,,1,,,,,,,4,
37,,,,,,,,,,,,,,,,
47,,,,,,,,1,,,,,,,4,
37,,,,,,,,,,,,,,,,
(128){64}47,,,,,,,,1,,,,,,,4,
37,,,,,,,,,,,,,,,,
47,,,,,,,,1,,,,,,,4,
37,,,,,,,,,,,,,,,,
(128){64}47,,,,,,,,1,,,,,,,4,
37,,,,,,,,,,,,,,,,
47,,,,,,,,1,,,,,,,4,
37,,,,,,,,,,,,,,,,
(128){64}47,,,,,,,,1,,,,,,,4,
37,,,,,,,,1,,,,,,,,
47,,,,,,,,1,,,,,,,48,
37,,,,,,,,17,,,,,,,,
(128){64}37,,,,,,,,1,,,,,,,,
67,3,,,,,,,,,,,,,,,
37,,,,,,,,1,,,,,,,,
67,3,,,,,,,,,,,,,,,
(128){64}37,,,,,,,,1,,,,,,,,
67,3,,,,,,,,,,,,,,,
37,,,,,,,,1,,,,,,,,
67,3,,,,,,,,,,,,,,,
(128){64}37,,,,,,,,1,,,,,,,,
67,3,,,,,,,,,,,,,,,
37,,,,,,,,1,,,,,,,,
67,3,,,,,,,,,,,,,,,
(128){64}37,,,,,,,,1,,,,,,,,
67,12,,,,,,,1,,,,,,,,
37,,,,,,,,1,,,,,,,,
67,12,,,,,,,27,,,,,,,,
(128){64}35,,,,,,,,1,,,,,,,5,
36,,,,,,,,1,,,,,,,,
35,,,,,,,,1,,,,,,,5,
36,,,,,,,,1,,,,,,,,
(128){64}35,,,,,,,,1,,,,,,,5,
36,,,,,,,,1,,,,,,,,
35,,,,,,,,1,,,,,,,5,
36,,,,,,,,1,,,,,,,,
(128){64}47,,,,,,,,1,,,,,,,4,
37,,,,,,,,1,,,,,,,,
47,,,,,,,,1,,,,,,,4,
37,,,,,,,,17,,,,,,,,
(128){64}4,,,,,,,,1,,,,,,,,
4,,,,,,,,1,,,,,,,,
4,,,,,,,,1,,,,,,,,
14,,,,,,,,1/6b,,,,,,,,
(128){16}3/4/5/6b,,,,3/4/5/6b,,,,3/4/5b/6,,,,3/4/5b/6,,,,
(128){16}3/4b/5/6,,,,3/4b/5/6,,,,3b/4/5/6,,,,3b/4/5/6,,,,
(128){16}1/2/3/4b,,,,1/2/3/4b,,,,1/2/3b/4,,,,1/2/3b/4,,,,
(128){16}1/2b/3/4,,,,1/2b/3/4,,,,1b/2/3/4,,,,1b/2/3/4,,1b/2,,
(128){16}4/5/6/7b,,,,4/5/6/7b,,,,4/5/6b/7,,,,4/5/6b/7,,,,
(128){16}4/5b/6/7,,,,4/5b/6/7,,,,4b/5/6/7,,,,4b/5/6/7,,,,
(128){16}1/2/3b/8,,,,1/2/3b/8,,,,1/2b/3/8,,,,1/2b/3/8,,,,
(128){16}1b/2/7/8,,,,1b/2/7/8,,,,1/2/7/8b,,,,1b/2/7/8b,,1b/8b,,
(128){8}8,,8,,8,,8,,
(128){8}8,,8,,8,,8,,
(128){8}1,,1,,1,,1,,
(128){8}1,,1,,1,,1,1,
(128){8},,,,,,,,
(128){8},,,,,,,,
(128){8},,,,,,,,
(128){8},,,,,,,,
&inote_6=(128){8},,,,,,,,
(128){8},,,,,,,,
(128){8},,,,,,,,
(128){8},,,,,,,,
(128){8},,,,,,,,
(128){8},,,,,,,6,
(128){8}6,,6,,6,,6,,
(128){8}6,,6,,6,,6,,
(128){8}6,,6,,6,,6,,
(128){8}6,,6,,6,,6,6,
(128){8}6,1,6,1,6,1,6,1,
(128){8}6,1,6,1,6,1,6,1,
(128){8}6,1,6,1,6,1,6,16,
(128){8},,3b,,,,,7,
(128){64}47,,,,,,,,,,,,,,,,
37,4,,,,,,,,,,,,,,,
47,,,,,,,,,,,,,,,,
37,4,,,,,,,,,,,,,,,
(128){64}47,,,,,,,,,,,,,,,,
37,4,,,,,,,,,,,,,,,
47,,,,,,,,,,,,,,,,
37,4,,,,,,,,,,,,,,,
(128){64}47,,,,,,,,,,,,,,,,
37,4,,,,,,,,,,,,,,,
47,,,,,,,,,,,,,,,,
37,4,,,,,,,,,,,,,,,
(128){64}47,,,,,,,,,,,,,,,,
37,4,,,,,,,,,,,,,,,
47,,,,,,,,,,,,,,,,
37,4,,,,,,,,7,,,,,,,
(128){64}47,,,,,,,,1,,,,,,,4,
37,,,,,,,,,,,,,,,,
47,,,,,,,,1,,,,,,,4,
37,,,,,,,,,,,,,,,,
(128){64}47,,,,,,,,1,,,,,,,4,
37,,,,,,,,,,,,,,,,
47,,,,,,,,1,,,,,,,4,
37,,,,,,,,,,,,,,,,
(128){64}47,,,,,,,,1,,,,,,,4,
37,,,,,,,,,,,,,,,,
47,,,,,,,,1,,,,,,,4,
37,,,,,,,,,,,,,,,,
(128){64}47,,,,,,,,1,,,,,,,4,
37,,,,,,,,1,,,,,,,,
47,,,,,,,,1,,,,,,,48,
37,,,,,,,,17,,,,,,,,
(128){64}37,,,,,,,,1,,,,,,,,
67,3,,,,,,,,,,,,,,,
37,,,,,,,,1,,,,,,,,
67,3,,,,,,,,,,,,,,,
(128){64}37,,,,,,,,1,,,,,,,,
67,3,,,,,,,,,,,,,,,
37,,,,,,,,1,,,,,,,,
67,3,,,,,,,,,,,,,,,
(128){64}37,,,,,,,,1,,,,,,,,
67,3,,,,,,,,,,,,,,,
37,,,,,,,,1,,,,,,,,
67,3,,,,,,,,,,,,,,,
(128){64}37,,,,,,,,1,,,,,,,,
67,12,,,,,,,1,,,,,,,,
37,,,,,,,,1,,,,,,,,
67,12,,,,,,,27,,,,,,,,
(128){64}35,,,,,,,,1,,,,,,,5,
36,,,,,,,,1,,,,,,,,
35,,,,,,,,1,,,,,,,5,
36,,,,,,,,1,,,,,,,,
(128){64}35,,,,,,,,1,,,,,,,5,
36,,,,,,,,1,,,,,,,,
35,,,,,,,,1,,,,,,,5,
36,,,,,,,,1,,,,,,,,
(128){64}47,,,,,,,,1,,,,,,,4,
37,,,,,,,,1,,,,,,,,
47,,,,,,,,1,,,,,,,4,
37,,,,,,,,17,,,,,,,,
(128){64}4,,,,,,,,1,,,,,,,,
4,,,,,,,,1,,,,,,,,
4,,,,,,,,1,,,,,,,,
14,,,,,,,,1/6b,,,,,,,,
(128){16}7b/8,2,2,2,7b/8,3,3,3,7b/8,4,4,4,7b/8,5,5,5,
(128){16}7b/8,2,2,2,7b/8,3,3,3,7b/8,4,4,4,7b/8,5,5,5,
(128){16}1/2b,4,4,4,1/2b,5,5,5,1/2b,6,6,6,1/2b,7,7,7,
(128){16}1/2b,4,4,4,1/2b,5,5,5,1/2b,6,6,6,1/2b,7,2b/7,7,
(128){16}5/6b,3,3,3,5/6b,2,2,2,5/6b,1,1,1,5/6b,8,8,8,
(128){16}5/6b,3,3,3,5/6b,2,2,2,5/6b,1,1,1,5/6b,8,8,8,
(128){16}3b/4,6,6,6,3b/4,7,7,7,3b/4,8,8,8,3b/4,1,1,1,
(128){16}5/6b,8,8,8,5/6b,1,1,1,5/6b,2,2,2,5/6b,3,3/6b,3,
(128){8}8,,8,,8,,8,,
(128){8}8,,8,,8,,8,,
(128){8}1,,1,,1,,1,,
(128){8}1,,1,,1,,1,1,
(128){8},,,,,,,,
(128){8},,,,,,,,
(128){8},,,,,,,,
(128){8},,,,,,,,
